Отличная компания / Hum hain kamaal ke (Виджай Редди / Vijay Reddy) [1993, Индия, драма, комедия, криминал, VHSRip] VO

 Статистика раздачи 
Размер: 2.18 ГБ   |  Зарегистрирован: 20 окт 2018, 19:46   |   .torrent скачан: 1 раз
Сидеров: 15  [ 0 байт/сек ]     Личеров: 3  [ 0 байт/сек ]  
  
Аватара пользователя
Главный редактор
Главный редактор
Я на сайте
 
Раздал: 53.86 ТБ
Скачал: 2.6 ТБ
Ратио: 21.163
Сообщения: 159681
Стаж: 8 лет 25 дней
Откуда: Санкт-Петербург

Отличная компания / Hum hain kamaal ke
Страна: Индия
Жанр: драма, комедия, криминал
Год выпуска: 1993
Продолжительность: 02:23:20
Перевод: Одноголосый закадровый (женский)
Субтитры: нет
Режиссер: Виджай Редди / Vijay Reddy
В ролях: Шиба
Суджой Махержи
Кадер Кхан
Анупам Кхер
Аруна Ирани
Раза Мурад
Садашив Амрапуркар
Шиврадж
Описание: Nilamber and Pitamber are deaf and blind respectively, and together they attempt to solve a murder mystery, resulting in a number of comic mishaps.
Доп. информация: За релиз (оцифровку VHS) спасибо RoxMarty
Релиз
Сэмпл: https://yadi.sk/i/Ld7PneDEdB3h1Q
Качество видео: VHSRip
Формат видео: AVI
Видео: 704x528 (1.33:1), 25 fps, XviD build 73 ~1979 kbps avg, 0.21 bit/pixel
Аудио: 48 kHz, AC3 Dolby Digital, 2/0 (L,R) ch, ~192 kbps
Код: Выделить всё
Отличная компания (Hum hain kamaal ke) [AVO-женский] {by RoxMarty}.avi
Format                      : AVI
Format/Info                 : Audio Video Interleave
Format profile              : OpenDML
File size                   : 2.18 GiB
Duration                    : 2 h 23 min
Overall bit rate            : 2 179 kb/s
Movie name                  : Отличная компания (Hum hain kamaal ke) [AVO-женский] {by RoxMarty}
Director                    : by RoxMarty
Writing application         : VirtualDubMod 1.5.10.3 | www.virtualdub-fr.org || (build 2550/release)
Copyright                   : Edich2
Comment                     : RuTracker.org
Video
ID                          : 0
Format                      : MPEG-4 Visual
Format profile              : Advanced Simple@L5
Format settings             : BVOP2 / Custom Matrix
Format settings, BVOP       : 2
Format settings, QPel       : No
Format settings, GMC        : No warppoints
Format settings, Matrix     : Custom
Codec ID                    : XVID
Codec ID/Hint               : XviD
Duration                    : 2 h 23 min
Bit rate                    : 1 974 kb/s
Width                       : 704 pixels
Height                      : 528 pixels
Display aspect ratio        : 4:3
Frame rate                  : 25.000 FPS
Color space                 : YUV
Chroma subsampling          : 4:2:0
Bit depth                   : 8 bits
Scan type                   : Progressive
Compression mode            : Lossy
Bits/(Pixel*Frame)          : 0.212
Stream size                 : 1.98 GiB (91%)
Writing library             : XviD 73
Audio
ID                          : 1
Format                      : AC-3
Format/Info                 : Audio Coding 3
Codec ID                    : 2000
Duration                    : 2 h 23 min
Bit rate mode               : Constant
Bit rate                    : 192 kb/s
Channel(s)                  : 2 channels
Channel positions           : Front: L R
Sampling rate               : 48.0 kHz
Frame rate                  : 31.250 FPS (1536 SPF)
Bit depth                   : 16 bits
Compression mode            : Lossy
Stream size                 : 197 MiB (9%)
Alignment                   : Split accross interleaves
Interleave, duration        : 40  ms (1.00 video frame)
Interleave, preload duratio : 500  ms
Service kind                : Complete Main

Не забывайте говорить Спасибо. Не уходите с раздачи!   
Торрент: Зарегистрирован [20 окт 2018, 19:46] Для скачивания .torrent
необходима регистрация
Или скачать с помощью
MediaGet
Статус:
Проверен
 
.torrent скачан: 1 раз
Хэш: 627a38877d7090bebfa795064fc6bde006d51dc5
Размер: 2.18 ГБ (2 342 363 136 байт)
   Стать Автором раздачи
   
Цитата
  • Похожие торренты
    Ответы
    Просмотры
    Последнее сообщение

Вернуться в Индийское кино

Кто сейчас на конференции

Сейчас эту тему просматривают: нет зарегистрированных пользователей и гости: 1