405 миль до Бомбея / Bombay 405 Miles (Бридж / Brij) [1980, Индия, мелодрама, драма, боевик, комедия, DVDRip] Sub Rus + Original Hin

 Статистика раздачи 
Размер: 1.96 ГБ   |  Зарегистрирован: 07 окт 2018, 15:03   |   .torrent скачан: 0 раз
Сидеров: 0  [ 0 байт/сек ]     Личеров: 0  [ 0 байт/сек ]  
  
Аватара пользователя
Главный редактор
Главный редактор
 
Раздал: 53.85 ТБ
Скачал: 2.58 ТБ
Ратио: 21.280
Сообщения: 157072
Стаж: 8 лет 18 дней
Откуда: Санкт-Петербург

405 миль до Бомбея / Bombay 405 Miles
Страна: Индия
Жанр: Мелодрама, драма, боевик, комедия
Год выпуска: 1980
Продолжительность: 02:40:05
Перевод: Субтитры
Субтитры: русские
Оригинальная аудиодорожка: хинди
Режиссер: Бридж / Brij
В ролях: Зинат Аман, Винод Кханна, Шатругхан Синха, Амджад Кхан, Пран, Девен Верма, Мастер Бхагван, Бирбал, Хелен, Ифтекхар
Описание: Двух мелких мошенников Кишана (Шатругхан Синха) и Kaнхайя (Винод Кханна) суд выслал из Дели. По пути в Бомбей в товарном поезде они встречают старика с маленькой девочкой Мунни. Умирая, тот просит позаботиться о девочке – наследнице многомиллионного богатства. Решив нажиться на этом деле, мошенники увозят Мунни с собой в Бомбей, чтобы найти ее ближайших родственников. Подав в газету рекламу о пропавшем ребенке, они требуют полмиллиона рупий у Вира Сингха (Амджад Кхан), ответившего на их объявление. Однако они не знают, что официально Мунни признана мертвой. Что ее вместе с матерью и братом убил Ранвир Сингх (Ифтеркхан). Кишан и Kaнхайя оказываются погруженными в паутину лжи и обмана. Они пытаются узнать правду. Их жизнь еще больше осложняется, когда девочку пытаются похитить как люди Вира Сингха, так и парочка мошенников – Мастерджи (Пран) и Рада (Зинат Аман)…
Доп. информация:
Сэмпл: https://yadi.sk/i/BGz2ysBEYODMNg
Качество видео: DVDRip
Формат видео: MKV
Видео: MPEG-4 AVC, 720x400 (16:9), 30.000 fps, 1530 kbps
Аудио: Хинди (AC3, 48 kHz, 2 ch, 224 kbps)
Формат субтитров: hardsub (неотключаемые)
Доп. информация о субтитрах: (керелис)
Код: Выделить всё
Общее
Уникальный идентификатор                 : 192842622270488006010794439565363700357 (0x911423591CA267C5BD6C4F7E32ACE285)
Полное имя                               : D:\Новая папка\Индийское кино\405.mil.do.Bombeja.1980.DVDRip.x264.BWTorrents.mkv
Формат                                   : Matroska
Версия формата                           : Version 2
Размер файла                             : 1,96 Гбайт
Продолжительность                        : 2 ч. 40 м.
Общий поток                              : 1755 Кбит/сек
Дата кодирования                         : UTC 2013-04-11 15:50:26
Программа кодирования                    : mkvmerge v5.4.0 ('Piper') built on Mar 10 2012 13:34:39
Библиотека кодирования                   : libebml v1.2.3 + libmatroska v1.3.0
Видео
Идентификатор                            : 1
Формат                                   : AVC
Формат/Информация                        : Advanced Video Codec
Профиль формата                          : High@L3
Настройки формата                        : CABAC / 4 Ref Frames
Параметр CABAC формата                   : Да
Параметр RefFrames формата               : 4 кадра
Режим смешивания                         : Header stripping
Идентификатор кодека                     : V_MPEG4/ISO/AVC
Продолжительность                        : 2 ч. 40 м.
Битрейт                                  : 1530 Кбит/сек
Ширина                                   : 720 пикселей
Высота                                   : 400 пикселей
Соотношение сторон                       : 16:9
Режим частоты кадров                     : Постоянный
Частота кадров                           : 30,000 кадров/сек
Цветовое пространство                    : YUV
Субдискретизация насыщенности            : 4:2:0
Битовая глубина                          : 8 бит
Тип развёртки                            : Прогрессивная
Бит/(Пиксели*Кадры)                      : 0.177
Размер потока                            : 1,67 Гбайт (85%)
Библиотека кодирования                   : x264 core 112
Настройки программы                      : cabac=1 / ref=4 / deblock=1:0:0 / analyse=0x3:0x113 / me=umh / subme=7 / psy=1 / psy_rd=1.00:0.00 / mixed_ref=1 / me_range=16 / chroma_me=1 / trellis=1 / 8x8dct=1 / cqm=0 / deadzone=21,11 / fast_pskip=1 / chroma_qp_offset=-2 / threads=3 / sliced_threads=0 / nr=0 / decimate=1 / interlaced=0 / constrained_intra=0 / bframes=3 / b_pyramid=2 / b_adapt=2 / b_bias=0 / direct=1 / weightb=1 / open_gop=0 / weightp=2 / keyint=300 / keyint_min=25 / scenecut=40 / intra_refresh=0 / rc_lookahead=50 / rc=2pass / mbtree=1 / bitrate=1530 / ratetol=1.0 / qcomp=0.60 / qpmin=3 / qpmax=51 / qpstep=4 / cplxblur=20.0 / qblur=0.5 / ip_ratio=1.40 / aq=1:1.00
Язык                                     : Hindi
Default                                  : Да
Forced                                   : Нет
Цветовой диапазон                        : Limited
Основные цвета                           : BT.601 NTSC
Характеристики трансфера                 : BT.709
Коэффициенты матрицы                     : BT.601
Аудио
Идентификатор                            : 2
Формат                                   : AC-3
Формат/Информация                        : Audio Coding 3
Режим смешивания                         : Header stripping
Идентификатор кодека                     : A_AC3
Продолжительность                        : 2 ч. 40 м.
Вид битрейта                             : Постоянный
Битрейт                                  : 224 Кбит/сек
Каналы                                   : 2 канала
Расположение каналов                     : Front: L R
Частота                                  : 48,0 КГц
Частота кадров                           : 31,250 кадров/сек (1536 SPF)
Битовая глубина                          : 16 бит
Метод сжатия                             : С потерями
Размер потока                            : 256 Мбайт (13%)
Язык                                     : Hindi
ServiceKind/String                       : Complete Main
Default                                  : Да
Forced                                   : Нет
Текст
Идентификатор                            : 3
Формат                                   : UTF-8
Идентификатор кодека                     : S_TEXT/UTF8
Идентификатор кодека/Информация          : UTF-8 Plain Text
Язык                                     : Russian
Default                                  : Да
Forced                                   : Нет
1
00:00:16,679 --> 00:00:22,512
<b>405 МИЛЬ ДО БОМБЕЯ</b>
2
00:01:00,233 --> 00:01:20,431
перевод субтитров керелис
для BWTorrents.Ru
3
00:01:41,500 --> 00:01:44,545
Тебе нравится кататься
с папой на верблюде?
4
00:01:46,450 --> 00:01:47,653
Быстрее!
5
00:01:49,566 --> 00:01:51,112
Отдай его мне.
6
00:01:51,298 --> 00:01:52,844
Сделай еще порцию.
7
00:01:53,029 --> 00:01:55,004
Дорогая, возьми 2 пломбира. Ешь.
8
00:02:01,269 --> 00:02:05,005
Папа, почему ты с нами не живешь?
Я без тебя скучаю.
9
00:02:06,427 --> 00:02:09,402
Мне тоже не нравится.
Но что мне делать?
10
00:02:09,543 --> 00:02:12,518
У меня такой огромный бизнес,
я должен постоянно разъезжать.
11
00:02:12,659 --> 00:02:15,976
Вот почему ты живешь со своим дядей.
12
00:02:16,467 --> 00:02:19,785
Тебе очень повезло, что у тебя
есть такой хороший дядя.
13
00:02:19,930 --> 00:02:21,865
Он заменил тебе любовь отца и матери.
14
00:02:22,041 --> 00:02:25,016
И у него нет работы.
Он только получает зарплату, ничего не делая.
15
00:02:25,957 --> 00:02:27,092
Когда ты собираешься поехать в школу?
16
00:02:27,227 --> 00:02:29,935
Через 3 дня.
- Через 3 дня?
17
00:02:30,151 --> 00:02:32,358
Значит в субботу, воскресенье,
понедельник. О, Боже!
18
00:02:32,498 --> 00:02:35,096
В понедельник меня здесь не будет.
19
00:02:35,244 --> 00:02:41,359
Каникулы начинаются с 18 октября.
До этого времени она поживет у меня.
20
00:02:42,244 --> 00:02:44,359
Я сам отвезу ее в школу в Панчгани.
21
00:02:46,711 --> 00:02:48,996
Приезжай с ней встретиться.
- Хорошо, я приеду.
22
00:02:49,396 --> 00:02:51,871
Хорошо дорогая, я уезжаю.
Я приеду 18-го.
23
00:03:10,012 --> 00:03:15,664
Я уезжаю.
- Я тоже уезжаю.
24
00:03:15,712 --> 00:03:16,481
Куда ты едешь?
25
00:03:16,628 --> 00:03:19,067
В город. Мой босс г-н Ранвир Сингх
ждет меня. Он собирается в Сингапур.
26
00:03:27,992 --> 00:03:29,980
Хорошая новость, господин.
27
00:03:30,403 --> 00:03:32,095
Завтра Ранвир Сингх
собирается в Сингапур.
28
00:03:33,219 --> 00:03:36,532
Рада, я еду только на 1 неделю.
А не на 10-15 лет.
29
00:03:37,297 --> 00:03:39,304
Не говори, пока я не выполню почитания.
30
00:03:46,109 --> 00:03:48,615
Что тебе привезти из Сингапура?
Не забывайте говорить Спасибо. Не уходите с раздачи!   
Торрент: Зарегистрирован [07 окт 2018, 15:03] Для скачивания .torrent
необходима регистрация
Или скачать с помощью
MediaGet
Статус:
Проверен
 
.torrent скачан: 0 раз
Размер: 1.96 ГБ (2 107 465 053 байт)
   Стать Автором раздачи
   
Цитата
  • Похожие торренты
    Ответы
    Просмотры
    Последнее сообщение

Вернуться в Индийское кино

Кто сейчас на конференции

Сейчас эту тему просматривают: нет зарегистрированных пользователей и гости: 1