Hurts - Desire (2017) Sony Music [FLAC|Lossless|tracks + .cue] <Electronic, Synthpop, Pop>

 Статистика раздачи 
Размер: 298.47 МБ   |  Зарегистрирован: 05 ноя 2018, 08:14   |   .torrent скачан: 0 раз
Сидеров: 2  [ 0 байт/сек ]     Личеров: 1  [ 0 байт/сек ]  
  
Аватара пользователя
 
Раздал: 3.36 ТБ
Скачал: 63.98 ГБ
Ратио: 53.828
Сообщения: 197205
Стаж: 1 год 7 месяцев 29 дней

Hurts
Desire
Жанр: Electronic, Synthpop, Pop
Издание: © 2017 ® Sony Music - 88985420282 (EU)
Продолжительность: 00:44:16

Кодек: FLAC
Битрейт: Lossless
Тип рипа: tracks + .cue

Треклист:
01/13. Beautiful Ones (3:03)
02/13. Ready To Go (2:46)
03/13. People Like Us (3:39)
04/13. Something I Need To Know (3:31)
05/13. Thinking Of You (3:19)
06/13. Wherever You Go (3:38)
07/13. Chaperone (2:52)
08/13. Boyfriend (2:49)
09/13. Walk Away (3:45)
10/13. Wait Up (4:08)
11/13. Spotlights (3:20)
12/13. Hold On To Me (3:02)
13/13. Magnificent (4:23)


Код: Выделить всё
X Lossless Decoder version 20170729 (150.3)

XLD extraction logfile from 2017-09-28 12:45:13 +0200

Hurts / Desire

Used Drive : MATSHITA DVD-R   UJ-85J (revision FM0S) (not found in database)
Media type : Pressed CD

Ripper mode             : XLD Secure Ripper
Disable audio cache     : OK for the drive with a cache less than 1375KiB
Make use of C2 pointers : NO
Read offset correction  : 102
Max retry count         : 20
Gap status              : Analyzed, Appended (except HTOA)

TOC of the extracted CD
     Track |   Start  |  Length  | Start sector | End sector
    ---------------------------------------------------------
        1  | 00:00:00 | 03:02:47 |         0    |    13696
        2  | 03:02:47 | 02:45:70 |     13697    |    26141
        3  | 05:48:42 | 03:39:06 |     26142    |    42572
        4  | 09:27:48 | 03:31:05 |     42573    |    58402
        5  | 12:58:53 | 03:19:33 |     58403    |    73360
        6  | 16:18:11 | 03:38:23 |     73361    |    89733
        7  | 19:56:34 | 02:51:67 |     89734    |   102625
        8  | 22:48:26 | 02:49:22 |    102626    |   115322
        9  | 25:37:48 | 03:44:52 |    115323    |   132174
       10  | 29:22:25 | 04:08:22 |    132175    |   150796
       11  | 33:30:47 | 03:19:65 |    150797    |   165786
       12  | 36:50:37 | 03:01:50 |    165787    |   179411
       13  | 39:52:12 | 04:23:33 |    179412    |   199169

AccurateRip Summary
    Disc not found in AccurateRip DB.

All Tracks
    Album gain               : -11.04 dB
    Peak                     : 0.998840
    Statistics
        Read error                           : 0
        Jitter error (maybe fixed)           : 0
        Retry sector count                   : 0
        Damaged sector count                 : 0

Track 01
    Filename : /Volumes/USB/Hurts - Desire (2017) [FLAC]/01 Beautiful Ones.flac
    Pre-gap length : 00:02:00

    Track gain               : -11.37 dB
    Peak                     : 0.993866
    CRC32 hash (test run)    : 7B7E59C1
    CRC32 hash               : 7B7E59C1
    CRC32 hash (skip zero)   : C647551B
    AccurateRip v1 signature : 095B5CE8
    AccurateRip v2 signature : 4BEF8C2B
        ->Track not present in AccurateRip database.
    Statistics
        Read error                           : 0
        Jitter error (maybe fixed)           : 0
        Retry sector count                   : 0
        Damaged sector count                 : 0

Track 02
    Filename : /Volumes/USB/Hurts - Desire (2017) [FLAC]/02 Ready To Go.flac

    Track gain               : -10.84 dB
    Peak                     : 0.992584
    CRC32 hash (test run)    : BFAFB4DB
    CRC32 hash               : BFAFB4DB
    CRC32 hash (skip zero)   : D496C502
    AccurateRip v1 signature : 2DF3EB07
    AccurateRip v2 signature : 6452AFE8
        ->Track not present in AccurateRip database.
    Statistics
        Read error                           : 0
        Jitter error (maybe fixed)           : 0
        Retry sector count                   : 0
        Damaged sector count                 : 0

Track 03
    Filename : /Volumes/USB/Hurts - Desire (2017) [FLAC]/03 People Like Us.flac
    Pre-gap length : 00:01:39

    Track gain               : -10.33 dB
    Peak                     : 0.941986
    CRC32 hash (test run)    : FC3D0A93
    CRC32 hash               : FC3D0A93
    CRC32 hash (skip zero)   : B6CC2C2A
    AccurateRip v1 signature : F5912E05
    AccurateRip v2 signature : 470C6C5F
        ->Track not present in AccurateRip database.
    Statistics
        Read error                           : 0
        Jitter error (maybe fixed)           : 0
        Retry sector count                   : 0
        Damaged sector count                 : 0

Track 04
    Filename : /Volumes/USB/Hurts - Desire (2017) [FLAC]/04 Something I Need To Know.flac
    Pre-gap length : 00:00:50

    Track gain               : -11.66 dB
    Peak                     : 0.987793
    CRC32 hash (test run)    : 329920D6
    CRC32 hash               : 329920D6
    CRC32 hash (skip zero)   : 4601D732
    AccurateRip v1 signature : 2B8A22C8
    AccurateRip v2 signature : 305E5DFE
        ->Track not present in AccurateRip database.
    Statistics
        Read error                           : 0
        Jitter error (maybe fixed)           : 0
        Retry sector count                   : 0
        Damaged sector count                 : 0

Track 05
    Filename : /Volumes/USB/Hurts - Desire (2017) [FLAC]/05 Thinking Of You.flac
    Pre-gap length : 00:00:57

    Track gain               : -11.08 dB
    Peak                     : 0.987793
    CRC32 hash (test run)    : D877E3A8
    CRC32 hash               : D877E3A8
    CRC32 hash (skip zero)   : 7CB694B9
    AccurateRip v1 signature : 5E6E1534
    AccurateRip v2 signature : E31B2807
        ->Track not present in AccurateRip database.
    Statistics
        Read error                           : 0
        Jitter error (maybe fixed)           : 0
        Retry sector count                   : 0
        Damaged sector count                 : 0

Track 06
    Filename : /Volumes/USB/Hurts - Desire (2017) [FLAC]/06 Wherever You Go.flac
    Pre-gap length : 00:01:07

    Track gain               : -10.34 dB
    Peak                     : 0.998810
    CRC32 hash (test run)    : 7EF919F1
    CRC32 hash               : 7EF919F1
    CRC32 hash (skip zero)   : 89439828
    AccurateRip v1 signature : 60A8D94A
    AccurateRip v2 signature : 87352551
        ->Track not present in AccurateRip database.
    Statistics
        Read error                           : 0
        Jitter error (maybe fixed)           : 0
        Retry sector count                   : 0
        Damaged sector count                 : 0

Track 07
    Filename : /Volumes/USB/Hurts - Desire (2017) [FLAC]/07 Chaperone.flac
    Pre-gap length : 00:01:21

    Track gain               : -8.11 dB
    Peak                     : 0.835205
    CRC32 hash (test run)    : 6284311A
    CRC32 hash               : 6284311A
    CRC32 hash (skip zero)   : F2E9D92C
    AccurateRip v1 signature : 8A8438D8
    AccurateRip v2 signature : 1896EE0E
        ->Track not present in AccurateRip database.
    Statistics
        Read error                           : 0
        Jitter error (maybe fixed)           : 0
        Retry sector count                   : 0
        Damaged sector count                 : 0

Track 08
    Filename : /Volumes/USB/Hurts - Desire (2017) [FLAC]/08 Boyfriend.flac
    Pre-gap length : 00:01:20

    Track gain               : -11.05 dB
    Peak                     : 0.996796
    CRC32 hash (test run)    : A9B6BECA
    CRC32 hash               : A9B6BECA
    CRC32 hash (skip zero)   : A1C56EA2
    AccurateRip v1 signature : 424C4431
    AccurateRip v2 signature : 4BE4234D
        ->Track not present in AccurateRip database.
    Statistics
        Read error                           : 0
        Jitter error (maybe fixed)           : 0
        Retry sector count                   : 0
        Damaged sector count                 : 0

Track 09
    Filename : /Volumes/USB/Hurts - Desire (2017) [FLAC]/09 Walk Away.flac
    Pre-gap length : 00:01:24

    Track gain               : -11.14 dB
    Peak                     : 0.998840
    CRC32 hash (test run)    : D93146F8
    CRC32 hash               : D93146F8
    CRC32 hash (skip zero)   : B07D9C47
    AccurateRip v1 signature : 3AA59509
    AccurateRip v2 signature : AA59FD23
        ->Track not present in AccurateRip database.
    Statistics
        Read error                           : 0
        Jitter error (maybe fixed)           : 0
        Retry sector count                   : 0
        Damaged sector count                 : 0

Track 10
    Filename : /Volumes/USB/Hurts - Desire (2017) [FLAC]/10 Wait Up.flac
    Pre-gap length : 00:00:05

    Track gain               : -10.51 dB
    Peak                     : 0.998657
    CRC32 hash (test run)    : 050F6238
    CRC32 hash               : 050F6238
    CRC32 hash (skip zero)   : 89550815
    AccurateRip v1 signature : 52801D87
    AccurateRip v2 signature : F4B68AEF
        ->Track not present in AccurateRip database.
    Statistics
        Read error                           : 0
        Jitter error (maybe fixed)           : 0
        Retry sector count                   : 0
        Damaged sector count                 : 0

Track 11
    Filename : /Volumes/USB/Hurts - Desire (2017) [FLAC]/11 Spotlights.flac
    Pre-gap length : 00:00:28

    Track gain               : -11.28 dB
    Peak                     : 0.991913
    CRC32 hash (test run)    : 8805ADBB
    CRC32 hash               : 8805ADBB
    CRC32 hash (skip zero)   : A5AE89AF
    AccurateRip v1 signature : 307FE062
    AccurateRip v2 signature : 3A39F41A
        ->Track not present in AccurateRip database.
    Statistics
        Read error                           : 0
        Jitter error (maybe fixed)           : 0
        Retry sector count                   : 0
        Damaged sector count                 : 0

Track 12
    Filename : /Volumes/USB/Hurts - Desire (2017) [FLAC]/12 Hold On To Me.flac
    Pre-gap length : 00:00:65

    Track gain               : -11.14 dB
    Peak                     : 0.990967
    CRC32 hash (test run)    : 3DF32DA0
    CRC32 hash               : 3DF32DA0
    CRC32 hash (skip zero)   : F01A2A7C
    AccurateRip v1 signature : 2376A10B
    AccurateRip v2 signature : 025F0345
        ->Track not present in AccurateRip database.
    Statistics
        Read error                           : 0
        Jitter error (maybe fixed)           : 0
        Retry sector count                   : 0
        Damaged sector count                 : 0

Track 13
    Filename : /Volumes/USB/Hurts - Desire (2017) [FLAC]/13 Magnificent.flac
    Pre-gap length : 00:00:32

    Track gain               : -11.23 dB
    Peak                     : 0.987793
    CRC32 hash (test run)    : A5D9E4DA
    CRC32 hash               : A5D9E4DA
    CRC32 hash (skip zero)   : 6E3D424F
    AccurateRip v1 signature : 9AF8D1A9
    AccurateRip v2 signature : F8164D3B
        ->Track not present in AccurateRip database.
    Statistics
        Read error                           : 0
        Jitter error (maybe fixed)           : 0
        Retry sector count                   : 0
        Damaged sector count                 : 0

No errors occurred

End of status report

-----BEGIN XLD SIGNATURE-----
X5Sk4OkcMlC_M8TyXsEZTaJwCEKdM6y
Код: Выделить всё
REM GENRE "Rock"
REM DATE 2017
TITLE "Desire"
FILE "01 Beautiful Ones.flac" WAVE
  TRACK 01 AUDIO
    PERFORMER "Hurts"
    TITLE "Beautiful Ones"
    INDEX 01 00:00:00
FILE "02 Ready To Go.flac" WAVE
  TRACK 02 AUDIO
    PERFORMER "Hurts"
    TITLE "Ready To Go"
    INDEX 01 00:00:00
FILE "03 People Like Us.flac" WAVE
  TRACK 03 AUDIO
    PERFORMER "Hurts"
    TITLE "People Like Us"
    INDEX 01 00:00:00
FILE "04 Something I Need To Know.flac" WAVE
  TRACK 04 AUDIO
    PERFORMER "Hurts"
    TITLE "Something I Need To Know"
    INDEX 01 00:00:00
FILE "05 Thinking Of You.flac" WAVE
  TRACK 05 AUDIO
    PERFORMER "Hurts"
    TITLE "Thinking Of You"
    INDEX 01 00:00:00
FILE "06 Wherever You Go.flac" WAVE
  TRACK 06 AUDIO
    PERFORMER "Hurts"
    TITLE "Wherever You Go"
    INDEX 01 00:00:00
FILE "07 Chaperone.flac" WAVE
  TRACK 07 AUDIO
    PERFORMER "Hurts"
    TITLE "Chaperone"
    INDEX 01 00:00:00
FILE "08 Boyfriend.flac" WAVE
  TRACK 08 AUDIO
    PERFORMER "Hurts"
    TITLE "Boyfriend"
    INDEX 01 00:00:00
FILE "09 Walk Away.flac" WAVE
  TRACK 09 AUDIO
    PERFORMER "Hurts"
    TITLE "Walk Away"
    INDEX 01 00:00:00
FILE "10 Wait Up.flac" WAVE
  TRACK 10 AUDIO
    PERFORMER "Hurts"
    TITLE "Wait Up"
    INDEX 01 00:00:00
FILE "11 Spotlights.flac" WAVE
  TRACK 11 AUDIO
    PERFORMER "Hurts"
    TITLE "Spotlights"
    INDEX 01 00:00:00
FILE "12 Hold On To Me.flac" WAVE
  TRACK 12 AUDIO
    PERFORMER "Hurts"
    TITLE "Hold On To Me"
    INDEX 01 00:00:00
FILE "13 Magnificent.flac" WAVE
  TRACK 13 AUDIO
    PERFORMER "Hurts"
    TITLE "Magnificent"
    INDEX 01 00:00:00
Код: Выделить всё
-----------------------

DON'T MODIFY THIS FILE

-----------------------

PERFORMER: auCDtect Task Manager, ver. 1.6.0 RC1 build 1.6.0.1
Copyright (c) 2008-2010 y-soft. All rights reserved
[url=http://y-soft.org]http://y-soft.org[/url]

ANALYZER: auCDtect: CD records authenticity detector, version 0.8.2
Copyright (c) 2004 Oleg Berngardt. All rights reserved.
Copyright (c) 2004 Alexander Djourik. All rights reserved.

FILE: 13 Magnificent.flac
  Size: 30424588 Hash: 45A0D1236236A5326E6AB91D101211A2 Accuracy: -m0
  Conclusion: CDDA 100%
  Signature: 89D3F38AF10D9588D20EB8EDE8623B187B9E6076
FILE: 12 Hold On To Me.flac
  Size: 20786158 Hash: F853136530F0F8C5EC4C2B6CA6293B83 Accuracy: -m0
  Conclusion: CDDA 100%
  Signature: AB7A5FE572DDC56B081BE8DE83616AFE3B43C5C5
FILE: 11 Spotlights.flac
  Size: 24107762 Hash: AD3356D165122D8336618F2DDC65E66B Accuracy: -m0
  Conclusion: CDDA 100%
  Signature: AEAACE8B75924261C9A94D6E354A7E9357426DCA
FILE: 10 Wait Up.flac
  Size: 28142194 Hash: 656E2D089AF61F5D6B0636800699AA3A Accuracy: -m0
  Conclusion: CDDA 100%
  Signature: 456540B6A054A215A6E9DB97130C63E68B1D5BE7
FILE: 09 Walk Away.flac
  Size: 27838267 Hash: 04CFD884703429422F81D28D4D8A9469 Accuracy: -m0
  Conclusion: CDDA 99%
  Signature: 48CDE851C2DB808A147993DA538D261493B91EDA
FILE: 08 Boyfriend.flac
  Size: 21104891 Hash: AD2219C419CBD74E7BBBAA3454295B61 Accuracy: -m0
  Conclusion: MPEG 95%
  Signature: D7A6EC33E51032B3B8A784BB92C1004A96F9CFC2
FILE: 07 Chaperone.flac
  Size: 15737957 Hash: 1AACFB33ED808C19ED422F8E22087E47 Accuracy: -m0
  Conclusion: CDDA 99%
  Signature: 5872FE240269596F13EA4EE55AC4A7CACB2034CC
FILE: 06 Wherever You Go.flac
  Size: 26457425 Hash: E13A51969AB773E3E5A1971F5976FEA4 Accuracy: -m0
  Conclusion: CDDA 99%
  Signature: 0A59561159EF96188085F46F921661A164CC3D2F
FILE: 05 Thinking Of You.flac
  Size: 23610866 Hash: A786A6776112FDF1DF7BE6E2344DD04B Accuracy: -m0
  Conclusion: MPEG 95%
  Signature: A7014F04A2AB19D0A4E7439332E7314205E2498E
FILE: 04 Something I Need To Know.flac
  Size: 23573417 Hash: 6A6E9EFFE8E14F92CC7345C2302D1C83 Accuracy: -m0
  Conclusion: MPEG 95%
  Signature: 8D45960997DE4D357DC87F43306358306011B3AC
FILE: 03 People Like Us.flac
  Size: 25964219 Hash: E5857240B8DC88880F7226D29E9ADF64 Accuracy: -m0
  Conclusion: CDDA 100%
  Signature: 47E9FD8A93F671FFB0839CAD26B921909D130039
FILE: 02 Ready To Go.flac
  Size: 20883096 Hash: DD8147578B155867E4F7BF922F39AA28 Accuracy: -m0
  Conclusion: MPEG 95%
  Signature: D5F07729A07F6614C14FB6C6351F35C682DC9FCA
FILE: 01 Beautiful Ones.flac
  Size: 23791024 Hash: 2C48F7D95FF3C7B466B4DA7BD6003324 Accuracy: -m0
  Conclusion: CDDA 100%
  Signature: F7CDB83F109560917B8AE4AAB08775AE4E4EDE36


#7
Код: Выделить всё
[b]Поглощение/вытеснение [/b]
[b]Только с согласия релизера[/b]
[b][u][i]kudzin[/b][/i][/u]
Не забывайте говорить Спасибо. Не уходите с раздачи!   
Торрент: Зарегистрирован [05 ноя 2018, 08:14] Для скачивания .torrent
необходима регистрация
Или скачать с помощью
MediaGet
Статус:
Проверен
 
.torrent скачан: 0 раз
Хэш: 52f29a277473486be923f4e2081a6a8d0d7086aa
Размер: 298.47 МБ (312 965 644 байт)
   Стать Автором раздачи
   
Цитата
  • Похожие торренты
    Ответы
    Просмотры
    Последнее сообщение

Вернуться в Electronic

Кто сейчас на конференции

Сейчас эту тему просматривают: нет зарегистрированных пользователей и гости: 1