Martini Ranch - Holy Cow (1988) Sire Records [FLAC|Lossless|tracks + .cue] <Electronic, Synthpop, Pop-Rock, 80s>

 Статистика раздачи 
Размер: 300.42 МБ   |  Зарегистрирован: 04 ноя 2018, 23:15   |   .torrent скачан: 0 раз
Сидеров: 1  [ 0 байт/сек ]     Личеров: 1  [ 0 байт/сек ]  
  
Аватара пользователя
 
Раздал: 3.36 ТБ
Скачал: 63.98 ГБ
Ратио: 53.828
Сообщения: 197205
Стаж: 1 год 7 месяцев 29 дней

Martini Ranch
Holy Cow
Жанр: Electronic, Synthpop, Pop-Rock, 80s
Издание: © 1988 ® Sire Records - 9 25674-2 (US)
Продолжительность: 00:44:08

Кодек: FLAC
Битрейт: Lossless
Тип рипа: tracks + .cue

Треклист:

01. New Deal (4:51)
02. Reach (4:39)
03. World Without Walls (5:14)
04. Fat-Burning Formula (4:11)
05. Richard Cory (3:55)
06. Hot Dog (3:57)
07. Serious Girl (4:44)
08. How Can The Labouring Man Find Time For Self-Culture (4:39)
09. (Brother) Take It Out (2:53)
10. Power Tool (5:05)


Код: Выделить всё
Exact Audio Copy V1.3 from 2. September 2016

EAC extraction logfile from 27. December 2017, 17:22

Martini Ranch / Holy Cow

Used drive  : HL-DT-STDVDRAM GP65NB60   Adapter: 1  ID: 0

Read mode               : Secure
Utilize accurate stream : Yes
Defeat audio cache      : Yes
Make use of C2 pointers : No

Read offset correction                      : 6
Overread into Lead-In and Lead-Out          : No
Fill up missing offset samples with silence : Yes
Delete leading and trailing silent blocks   : No
Null samples used in CRC calculations       : Yes
Used interface                              : Native Win32 interface for Win NT & 2000
Gap handling                                : Appended to previous track

Used output format              : User Defined Encoder
Selected bitrate                : 1024 kBit/s
Quality                         : High
Add ID3 tag                     : No
Command line compressor         : C:\Program Files (x86)\Exact Audio Copy\Flac\flac.exe
Additional command line options : -8 -e -p -V -T "ARTIST=%artist%" -T "TITLE=%title%" -T "ALBUM=%albumtitle%" -T "DATE=%year%" -T "TRACKNUMBER=%tracknr%" -T "GENRE=%genre%" -T "PERFORMER=%albuminterpret%" -T "COMPOSER=%composer%" %haslyrics%--tag-from-file=LYRICS="%lyricsfile%"%haslyrics% -T "ALBUMARTIST=%albumartist%" -T "DISCNUMBER=%cdnumber%" -T "TOTALDISCS=%totalcds%" -T "TOTALTRACKS=%numtracks%" -T "COMMENT=%comment%" %source% -o %dest%

TOC of the extracted CD

     Track |   Start  |  Length  | Start sector | End sector
    ---------------------------------------------------------
        1  |  0:00.33 |  4:51.25 |        33    |    21882
        2  |  4:51.58 |  4:39.25 |     21883    |    42832
        3  |  9:31.08 |  5:13.67 |     42833    |    66374
        4  | 14:45.00 |  4:10.53 |     66375    |    85177
        5  | 18:55.53 |  3:55.10 |     85178    |   102812
        6  | 22:50.63 |  3:57.05 |    102813    |   120592
        7  | 26:47.68 |  4:43.72 |    120593    |   141889
        8  | 31:31.65 |  4:38.58 |    141890    |   162797
        9  | 36:10.48 |  2:52.50 |    162798    |   175747
       10  | 39:03.23 |  5:04.60 |    175748    |   198607

Track  1

     Filename G:\Audio\Drive1\01 - New Deal.wav

     Pre-gap length  0:00:02.44

     Peak level 86.8 %
     Extraction speed 1.2 X
     Track quality 100.0 %
     Test CRC 9632FF18
     Copy CRC 9632FF18
     Accurately ripped (confidence 6)  [A61A20A7]  (AR v2)
     Copy OK

Track  2

     Filename G:\Audio\Drive1\02 - Reach.wav

     Peak level 95.9 %
     Extraction speed 1.3 X
     Track quality 100.0 %
     Test CRC 6EBBDD14
     Copy CRC 6EBBDD14
     Accurately ripped (confidence 7)  [27D3B034]  (AR v2)
     Copy OK

Track  3

     Filename G:\Audio\Drive1\03 - World Without Walls.wav

     Peak level 93.2 %
     Extraction speed 1.5 X
     Track quality 100.0 %
     Test CRC 1EF12846
     Copy CRC 1EF12846
     Accurately ripped (confidence 7)  [43BAE193]  (AR v2)
     Copy OK

Track  4

     Filename G:\Audio\Drive1\04 - Fat-Burning Formula.wav

     Pre-gap length  0:00:01.36

     Peak level 91.3 %
     Extraction speed 1.5 X
     Track quality 100.0 %
     Test CRC 7926D6DD
     Copy CRC 7926D6DD
     Accurately ripped (confidence 7)  [180101F2]  (AR v2)
     Copy OK

Track  5

     Filename G:\Audio\Drive1\05 - Richard Cory.wav

     Pre-gap length  0:00:01.33

     Peak level 91.1 %
     Extraction speed 1.6 X
     Track quality 100.0 %
     Test CRC 99A7E4CA
     Copy CRC 99A7E4CA
     Accurately ripped (confidence 7)  [ACD06C20]  (AR v2)
     Copy OK

Track  6

     Filename G:\Audio\Drive1\06 - Hot Dog.wav

     Pre-gap length  0:00:01.40

     Peak level 95.4 %
     Extraction speed 1.5 X
     Track quality 99.9 %
     Test CRC 90F3467C
     Copy CRC 90F3467C
     Accurately ripped (confidence 7)  [8F1D9897]  (AR v2)
     Copy OK

Track  7

     Filename G:\Audio\Drive1\07 - Serious Girl.wav

     Peak level 97.6 %
     Extraction speed 1.9 X
     Track quality 100.0 %
     Test CRC C1E7A84D
     Copy CRC C1E7A84D
     Accurately ripped (confidence 7)  [D828D8A8]  (AR v2)
     Copy OK

Track  8

     Filename G:\Audio\Drive1\08 - How Can The Labouring Man Find Time For Self-Culture.wav

     Peak level 98.9 %
     Extraction speed 1.9 X
     Track quality 100.0 %
     Test CRC 520D4420
     Copy CRC 520D4420
     Accurately ripped (confidence 7)  [377BD927]  (AR v2)
     Copy OK

Track  9

     Filename G:\Audio\Drive1\09 - (Brother) Take It Out.wav

     Peak level 97.0 %
     Extraction speed 1.9 X
     Track quality 100.0 %
     Test CRC 8F5D6F24
     Copy CRC 8F5D6F24
     Accurately ripped (confidence 7)  [1A84977E]  (AR v2)
     Copy OK

Track 10

     Filename G:\Audio\Drive1\10 - Power Tool.wav

     Peak level 94.3 %
     Extraction speed 1.9 X
     Track quality 99.9 %
     Test CRC 9EEE7E7D
     Copy CRC 9EEE7E7D
     Accurately ripped (confidence 7)  [73779FB2]  (AR v2)
     Copy OK

All tracks accurately ripped

No errors occurred

End of status report

---- CUETools DB Plugin V2.1.6

[CTDB TOCID: IPjnYIbZUO.RcGf_gS8RjBE0__M-] found
Submit result: IPjnYIbZUO.RcGf_gS8RjBE0__M- has been confirmed
Track | CTDB Status
  1   | (4/4) Accurately ripped
  2   | (4/4) Accurately ripped
  3   | (4/4) Accurately ripped
  4   | (4/4) Accurately ripped
  5   | (4/4) Accurately ripped
  6   | (4/4) Accurately ripped
  7   | (4/4) Accurately ripped
  8   | (4/4) Accurately ripped
  9   | (4/4) Accurately ripped
 10   | (4/4) Accurately ripped

==== Log checksum 99420C261E98486C75FFCEAF6DC97A2969956E32123FFEB2D56CD0DCA7FD8834 ====
Код: Выделить всё
REM GENRE Rock
REM DATE 1988
REM DISCID 8E0A580A
REM COMMENT "ExactAudioCopy v1.3"
CATALOG 0075992567428
PERFORMER "Martini Ranch"
TITLE "Holy Cow"
REM COMPOSER ""
FILE "01 - New Deal.wav" WAVE
  TRACK 01 AUDIO
    TITLE "New Deal"
    PERFORMER "Martini Ranch"
    REM COMPOSER ""
    PREGAP 00:00:33
    INDEX 01 00:00:00
FILE "02 - Reach.wav" WAVE
  TRACK 02 AUDIO
    TITLE "Reach"
    PERFORMER "Martini Ranch"
    REM COMPOSER ""
    INDEX 01 00:00:00
FILE "03 - World Without Walls.wav" WAVE
  TRACK 03 AUDIO
    TITLE "World Without Walls"
    PERFORMER "Martini Ranch"
    REM COMPOSER ""
    INDEX 01 00:00:00
  TRACK 04 AUDIO
    TITLE "Fat-Burning Formula"
    PERFORMER "Martini Ranch"
    REM COMPOSER ""
    INDEX 00 05:12:40
FILE "04 - Fat-Burning Formula.wav" WAVE
    INDEX 01 00:00:00
  TRACK 05 AUDIO
    TITLE "Richard Cory"
    PERFORMER "Martini Ranch"
    REM COMPOSER ""
    INDEX 00 04:09:28
FILE "05 - Richard Cory.wav" WAVE
    INDEX 01 00:00:00
  TRACK 06 AUDIO
    TITLE "Hot Dog"
    PERFORMER "Martini Ranch"
    REM COMPOSER ""
    INDEX 00 03:53:55
FILE "06 - Hot Dog.wav" WAVE
    INDEX 01 00:00:00
FILE "07 - Serious Girl.wav" WAVE
  TRACK 07 AUDIO
    TITLE "Serious Girl"
    PERFORMER "Martini Ranch"
    REM COMPOSER ""
    INDEX 01 00:00:00
FILE "08 - How Can The Labouring Man Find Time For Self-Culture.wav" WAVE
  TRACK 08 AUDIO
    TITLE "How Can The Labouring Man Find Time For Self-Culture"
    PERFORMER "Martini Ranch"
    REM COMPOSER ""
    INDEX 01 00:00:00
FILE "09 - (Brother) Take It Out.wav" WAVE
  TRACK 09 AUDIO
    TITLE "(Brother) Take It Out"
    PERFORMER "Martini Ranch"
    REM COMPOSER ""
    INDEX 01 00:00:00
FILE "10 - Power Tool.wav" WAVE
  TRACK 10 AUDIO
    TITLE "Power Tool"
    PERFORMER "Martini Ranch"
    REM COMPOSER ""
    INDEX 01 00:00:00
Код: Выделить всё
-----------------------

DON'T MODIFY THIS FILE

-----------------------

PERFORMER: auCDtect Task Manager, ver. 1.6.0 RC1 build 1.6.0.1
Copyright (c) 2008-2010 y-soft. All rights reserved
[url=http://y-soft.org]http://y-soft.org[/url]

ANALYZER: auCDtect: CD records authenticity detector, version 0.8.2
Copyright (c) 2004 Oleg Berngardt. All rights reserved.
Copyright (c) 2004 Alexander Djourik. All rights reserved.

FILE: 10 - Power Tool.flac
  Size: 35751952 Hash: 0FEE9A8A94C54050F495897475DF1889 Accuracy: -m0
  Conclusion: CDDA 100%
  Signature: 2F4D03E149C941D5E03F373024604494FE72DCD6
FILE: 09 - (Brother) Take It Out.flac
  Size: 19390080 Hash: 606343D88FF2B18EAE488E645B33D83C Accuracy: -m0
  Conclusion: CDDA 100%
  Signature: 5FED26174A94228EFBE02A155428D25904833D40
FILE: 08 - How Can The Labouring Man Find Time For Self-Culture.flac
  Size: 31611906 Hash: D317A8EE52E60C5759ACC4450F3D3DE4 Accuracy: -m0
  Conclusion: CDDA 99%
  Signature: 2EEBD3F066A58D653C618A91E79BC141194517EF
FILE: 07 - Serious Girl.flac
  Size: 35441772 Hash: 7339D25B3F04CCDE409B54C642463811 Accuracy: -m0
  Conclusion: CDDA 100%
  Signature: 149FD2D70FB1C4A914F8ECE5066BF68F9866BD71
FILE: 06 - Hot Dog.flac
  Size: 29075930 Hash: 1E03FFCCAD91B41F3A9A32D37D3E33ED Accuracy: -m0
  Conclusion: CDDA 100%
  Signature: 471AEAA8545DA76F235BA8DCD6314898F1A7CC1F
FILE: 05 - Richard Cory.flac
  Size: 26711283 Hash: 1E52803D638830380DA92D6B181FFDE2 Accuracy: -m0
  Conclusion: CDDA 100%
  Signature: 579664930F184B85A6D0E0D3F104AE14424FEF5C
FILE: 04 - Fat-Burning Formula.flac
  Size: 30206866 Hash: 820225E0D8DDC1719CA1FF56171053D1 Accuracy: -m0
  Conclusion: CDDA 100%
  Signature: BB0A217CF9ACCB568266365950082CFC73422D43
FILE: 03 - World Without Walls.flac
  Size: 35014468 Hash: 1D75C537706818981639C62062E04559 Accuracy: -m0
  Conclusion: CDDA 100%
  Signature: 2F12D346C283669F3D4E6F0623668C7C42F55DA4
FILE: 02 - Reach.flac
  Size: 33994749 Hash: C4ABD6E385D858F7319EADD179BA9DFC Accuracy: -m0
  Conclusion: CDDA 100%
  Signature: 6FECEE3D52459D432E9E28EA8B1AA258FC3865EE
FILE: 01 - New Deal.flac
  Size: 37410444 Hash: 71F90A70F392B2BC017C47F2D62578B3 Accuracy: -m0
  Conclusion: CDDA 100%
  Signature: 65E665BC7238C6526DCA4F8CDD6028F540F8A804


#7
Код: Выделить всё
[b]Поглощение/вытеснение [/b]
[b]Только с согласия релизера[/b]
[b][u][i]kudzin[/b][/i][/u]
Не забывайте говорить Спасибо. Не уходите с раздачи!   
Торрент: Зарегистрирован [04 ноя 2018, 23:15] Для скачивания .torrent
необходима регистрация
Или скачать с помощью
MediaGet
Статус:
Проверен
 
.torrent скачан: 0 раз
Хэш: 14c0183b98f22dc5698ac2306b2699172633f9bf
Размер: 300.42 МБ (315 014 121 байт)
   Стать Автором раздачи
   
Цитата
  • Похожие торренты
    Ответы
    Просмотры
    Последнее сообщение

Вернуться в Electronic

Кто сейчас на конференции

Сейчас эту тему просматривают: нет зарегистрированных пользователей и гости: 1