Fullmetal Panic! Invisible Victory | Full Metal Panic! Invisible Victory | Стальная тревога! IV [2018, TV, 12 эп.] BDrip 1080p raw

 Статистика раздачи 
Размер: 39.49 ГБ   |  Зарегистрирован: 05 ноя 2018, 18:02   |   .torrent скачан: 0 раз
Сидеров: 5  [ 0 байт/сек ]     Личеров: 2  [ 0 байт/сек ]  
  
Аватара пользователя
 
Раздал: 3.36 ТБ
Скачал: 63.98 ГБ
Ратио: 53.828
Сообщения: 197205
Стаж: 1 год 7 месяцев 29 дней

Fullmetal Panic! Invisible Victory
Full Metal Panic! Invisible Victory
Стальная тревога! IV
フルメタル・パニック! Invisible Victory

Жанр: приключения
Тип: ТВ
Продолжительность: 12 эп. по 25 мин.
Количество серий: 12 из 12
Выпуск: c 13.04.2018 по 18.07.2018
Производство: студия Xebec
Автор оригинала: Гато Сёдзи
Режиссер: Накаяма Кацуити
Ссылки: World-Art, ANN, AniDB, MyAnimeList, Сетка вещания
Описание:

Действие происходит в альтернативном мире, где СССР не был уничтожен, а великие державы ведут периферийные войны, в том числе, с помощью разнообразных мех.
Образцовый мальчик-солдат, сержант Сосукэ Сагару, был направлен в обычную среднюю школу Японии для защиты Канамэ Тидори, девушки, которая обладает странными сверхспособностями.
Всё это время перед Сагарой стояла тяжёлая задача, ведь ему приходилось совмещать активные школьные будни с не менее насыщенной работой на военном поприще. Но, разобравшись со всеми врагами из "Амальгамы”, Сагара наконец мог вздохнуть свободно. Теперь ничто не мешало его обычным подростковым будням в старшей школе. Однако, отдых длился недолго. "Амальгама” решает взять реванш и в этот раз одержать победу абсолютно любой ценой.
Качество видео: BDrip
Видео: AVC (High@L4), 1920x1080 (16:9), ~23.976 fps, ~11.4 Mbps
Аудио: FLAC, 2 ch, 48 kHz, 24 bit, ~1343 kbps | Звук: Японский
Язык озвучки: Японский
Субтитры: Русские
Перевод: LazyFox & Костин Тимофей

Скриншоты:



01. Zero Hour
02. Damage Control
03. Big One Percent
04. On My Own
05. Welcome to the Jungle
06. Rotten Repose
07. Giant Killing
08. One-Man Force
09. The Fallen Witch
10. Onward, Onward
11. Stormy Night
12. Make My Day
#1 Стальная тревога! - ТВ (24 эп.), адаптация ранобэ, 2002
#2 Стальная тревога: Фумоффу - ТВ (12 эп.), spinoff (ответвление сюжета), 2003
#3 Стальная тревога! Новый рейд [ТВ] - ТВ (13 эп.), продолжение, 2005
#4 Стальная тревога! Новый рейд OVA - OVA (1 эп.), продолжение, 2006
#5 Fullmetal Panic! Director's Cut - п/ф (3 эп.), компиляция ТВ-сериала, 2017
#6 Стальная тревога! IV - ТВ (12 эп.), адаптация ранобэ, 2018
Код: Выделить всё
General
Unique ID                   : 209715463100401206376651592639217261255 (0x9DC5BAA0F6AFBE0602029CD0276DDAC7)
Complete name               : Full Metal Panic ~Invisible Victory~ (BDRip 1920x1080 x264 FLAC)\[ReinForce] Full Metal Panic ~Invisible Victory~ 01 (BDRip 1920x1080 x264 FLAC).mkv
Format                      : Matroska
Format version              : Version 4
File size                   : 2.16 GiB
Duration                    : 24 min 11 s
Overall bit rate mode       : Variable
Overall bit rate            : 12.8 Mb/s
Encoded date                : UTC 2018-08-03 07:31:46
Writing application         : mkvmerge v23.0.0 ('The Bride Said No') 64-bit
Writing library             : libebml v1.3.5 + libmatroska v1.4.8

Video
ID                          : 1
Format                      : AVC
Format/Info                 : Advanced Video Codec
Format profile              : High@L4
Format settings             : CABAC / 4 Ref Frames
Format settings, CABAC      : Yes
Format settings, ReFrames   : 4 frames
Codec ID                    : V_MPEG4/ISO/AVC
Duration                    : 24 min 11 s
Bit rate                    : 11.4 Mb/s
Width                       : 1 920 pixels
Height                      : 1 080 pixels
Display aspect ratio        : 16:9
Frame rate mode             : Constant
Frame rate                  : 23.976 (24000/1001) FPS
Color space                 : YUV
Chroma subsampling          : 4:2:0
Bit depth                   : 8 bits
Scan type                   : Progressive
Bits/(Pixel*Frame)          : 0.230
Stream size                 : 1.93 GiB (89%)
Writing library             : x264 core 152
Encoding settings           : opencl=1 / cabac=1 / ref=4 / deblock=1:-2:-2 / analyse=0x3:0x113 / me=umh / subme=9 / psy=1 / psy_rd=0.70:0.00 / mixed_ref=0 / me_range=32 / chroma_me=1 / trellis=2 / 8x8dct=1 / cqm=0 / deadzone=21,11 / fast_pskip=1 / chroma_qp_offset=-2 / threads=8 / lookahead_threads=1 / sliced_threads=0 / nr=0 / decimate=1 / interlaced=0 / bluray_compat=0 / constrained_intra=0 / bframes=9 / b_pyramid=2 / b_adapt=2 / b_bias=0 / direct=3 / weightb=1 / open_gop=0 / weightp=2 / keyint=250 / keyint_min=23 / scenecut=40 / intra_refresh=0 / rc_lookahead=40 / rc=crf / mbtree=1 / crf=16.0 / qcomp=0.70 / qpmin=10 / qpmax=20 / qpstep=4 / ip_ratio=1.40 / aq=1:1.00
Default                     : Yes
Forced                      : No

Audio
ID                          : 2
Format                      : FLAC
Format/Info                 : Free Lossless Audio Codec
Codec ID                    : A_FLAC
Duration                    : 24 min 11 s
Bit rate mode               : Variable
Bit rate                    : 1 343 kb/s
Channel(s)                  : 2 channels
Channel layout              : L R
Sampling rate               : 48.0 kHz
Frame rate                  : 10.417 FPS (4608 SPF)
Bit depth                   : 24 bits
Compression mode            : Lossless
Stream size                 : 232 MiB (11%)
Writing library             : Lavf57.83.100
Language                    : Japanese
Default                     : Yes
Forced                      : No
Время раздачи:
круглосуточно
Не забывайте говорить Спасибо. Не уходите с раздачи!   
Торрент: Зарегистрирован [05 ноя 2018, 18:02] Для скачивания .torrent
необходима регистрация
Или скачать с помощью
MediaGet
Статус:
Проверен
 
.torrent скачан: 0 раз
Хэш: 06b8ec70aab3b2a3d4e5e87fa3fcbfd3ee950bdf
Размер: 39.49 ГБ (42 407 063 961 байт)
   Стать Автором раздачи
   
Цитата
  • Похожие торренты
    Ответы
    Просмотры
    Последнее сообщение

Вернуться в Аниме, Японские мультфильмы

Кто сейчас на конференции

Сейчас эту тему просматривают: нет зарегистрированных пользователей и гости: 1