Основы программирования (2013) PCRec (Rus)

 Статистика раздачи 
Размер: 745.89 МБ   |  Зарегистрирован: 02 фев 2015, 22:55   |   .torrent скачан: 21 раз
Сидеров: 453  [ 0 байт/сек ]     Личеров: 16  [ 0 байт/сек ]  
  
Аватара пользователя
Администратор
Администратор
 
Раздал: 24.48 ТБ
Скачал: 388.83 ГБ
Ратио: 145.347
Сообщения: 6101
Стаж: 7 лет 9 месяцев 6 дней
Откуда: Lithuania
СообщениеДобавлено: 02 фев 2015, 22:55


Основы программирования


Оригинальное название: Основы программирования
Дата выхода: 2013
Жанр: Программирование
Продолжительность: 01:06:54
Режиссёр: Seelentera
Описание: Курс "Основы программирования" это именно тот курс, с которого стоит начать погружаться в сферу информационных технологий.

После прохождения курса вы точно будете знать, каким программистом хотите стать, как развиваться, чему учиться и многое другое.

Лектор курса, Никита Северинов, сертифицированный разработчик СЭД DIRECTUM и ведущий специалист IT-технологий, дословно объяснит и покажет, что есть программирование и все, что с ним связано.

Качество: PCRec
Формат видео: AVC
Формат аудио: AAC
Видео: ~2000 kb/s, 1280х800, 1280x720, 1440x900
Аудио #1: AAC 2.0, 99,9 kb/s, 2 Ch, 44100 Hz

Общее
Полное имя :nnm\Seelentera — Основы программирования\Лекция 1. Введение в компьютерную область.mp4
Формат : MPEG-4
Профиль формата : Base Media
Идентификатор кодека : isom
Размер файла : 211 Мбайт
Продолжительность : 13 м.
Режим общего битрейта : Переменный
Общий поток : 2187 Кбит/сек
Дата кодирования : UTC 2013-06-12 16:36:51
Дата пометки : UTC 2013-06-12 16:36:51
Программа кодирования : Lavf53.32.100

Видео
Идентификатор : 1
Формат : AVC
Формат/Информация : Advanced Video Codec
Профиль формата : [email protected]
Параметр CABAC формата : Да
Параметр ReFrames формата : 2 кадра
Идентификатор кодека : avc1
Идентификатор кодека/Информация : Advanced Video Coding
Продолжительность : 13 м.
Битрейт : 2000 Кбит/сек
Ширина : 1280 пикселей
Высота : 800 пикселей
Соотношение сторон : 16:10
Режим частоты кадров : Постоянный
Частота кадров : 30,000 кадров/сек
Цветовое пространство : YUV
Субдискретизация насыщенности : 4:2:0
Битовая глубина : 8 бит
Тип развёртки : Прогрессивная
Бит/(Пиксели*Кадры) : 0.065
Размер потока : 201 Мбайт (95%)
Библиотека кодирования : x264 core 122
Настройки программы : cabac=1 / ref=2 / deblock=1:0:0 / analyse=0x3:0x113 / me=hex / subme=6 / psy=0 / mixed_ref=0 / me_range=16 / chroma_me=1 / trellis=0 / 8x8dct=1 / cqm=0 / deadzone=21,11 / fast_pskip=1 / chroma_qp_offset=0 / threads=4 / sliced_threads=0 / nr=0 / decimate=1 / interlaced=0 / bluray_compat=0 / constrained_intra=0 / bframes=3 / b_pyramid=0 / b_adapt=1 / b_bias=0 / direct=3 / weightb=1 / open_gop=0 / weightp=2 / keyint=120 / keyint_min=25 / scenecut=40 / intra_refresh=0 / rc_lookahead=40 / rc=2pass / mbtree=1 / bitrate=2000 / ratetol=1.0 / qcomp=0.60 / qpmin=10 / qpmax=51 / qpstep=4 / cplxblur=20.0 / qblur=0.5 / ip_ratio=1.40 / aq=1:1.00
Дата кодирования : UTC 2013-06-12 16:36:51
Дата пометки : UTC 2013-06-12 16:36:51

Аудио
Идентификатор : 2
Формат : AAC
Формат/Информация : Advanced Audio Codec
Профиль формата : LC
Идентификатор кодека : 40
Продолжительность : 13 м.
Вид битрейта : Переменный
Битрейт : 99,9 Кбит/сек
Максимальный битрейт : 128 Кбит/сек
Каналы : 2 канала
Расположение каналов : Front: L R
Частота : 44,1 КГц
Метод сжатия : С потерями
Размер потока : 9,65 Мбайт (5%)
Дата кодирования : UTC 2013-06-12 16:36:51
Дата пометки : UTC 2013-06-12 16:36:51

Лекция 1. Что такое программа
  • История развития ЭВМ
  • Как и где выполняются программы
  • Устройство компьютера (озу, цпу, пзу)
  • Представление данных в памяти компьютера
  • Что такое бит и байт
  • Что такое двоичная система счисления
  • Перевод чисел из двоичной системы счисления
  • Перевод чисел в двоичную систему счисления
  • Виды языков программирования
  • Низкоуровневые и высокоуровневые языки программирования
  • Компилируемые и интерпретируемые языки программирования
  • Какой язык будем использовать мы?
Лекция 2. Основы программирования
  • Что такое алгоритм
  • Виды алгоритмов
  • Примеры алгоритмов
  • Что такое переменная
  • Как объявить переменную
  • Как считать значения с переменной
  • Типы данных (что такое и какие бывают)
  • Что такое ветвления в коде
  • Пишем первое приложение "Hello, World!"
Лекция 3. Основы программирования, продолжение
  • Что такое циклы, виды и примеры использования
  • Что такое массивы, виды и примеры использования
  • Что такое функция и как ее использовать
  • Что такое рекурсивная функция
Лекция 4. Выбор своего пути в программировании
  • Языки для разработки сайтов
  • Языки для разработки настольных приложений
  • Языки для разработки приложений и игр под мобильные устройства
  • Разбор направлений
  • Web - разработчик и Native - разработчик

   
Торрент: Зарегистрирован [02 фев 2015, 22:55] Скачать торрент Магнет ссылка
Скачать торрент
[ Размер 15.35 КБ / Просмотров 408 ]
Статус:
Проверен
 
.torrent скачан: 21 раз
Размер: 745.89 МБ (782 119 595 байт)
   Стать Автором раздачи
 
 
Цитата

Вернуться в Программирование

Кто сейчас на конференции

Сейчас эту тему просматривают: нет зарегистрированных пользователей и гости: 1