Снежная королева 2: Перезаморозка (Алексей Цицилин) [2015, Россия, мультфильм, фэнтези, приключения, семейный, WEB-DL 720p] iTunes

 Статистика раздачи 
Размер: 2.41 ГБ   |  Зарегистрирован: 02 фев 2015, 18:10   |   .torrent скачан: 2461 раз
Сидеров: 876  [ 0 байт/сек ]     Личеров: 41  [ 0 байт/сек ]  
  
Аватара пользователя
Главный редактор
Главный редактор
Автор темы
Раздал: 10.09 ТБ
Скачал: 1.76 ТБ
Ратио: 6.147
Сообщения: 3344
Стаж: 6 лет 5 месяцев 2 дня
Откуда: Санкт-Петербург

Снежная королева 2: Перезаморозка


Русское название: Снежная королева 2: Перезаморозка
Оригинальное название: Snezhniy koroleva 2: Perezamorozka
Год выхода: 2014
Режиссер: Алексей Цицилин / Aleksey Tsitsilin
В ролях: Иван Охлобыстин, Нюша Шурочкина, Анна Хилькевич, Александр Уман, Игорь Бортник, Алексей Лихницкий, Роман Юнусов, Александр Гудко
Страна производства: Россия
Продолжительность: 80 мин. / 01:18:20
Композитор: Марк Уиллотт
Продюсер: Тимур Бекмамбетов, Юрий Москвин, Владимир Николаев
Сценарий: Алексей Цицилин, Алексей Замыслов, Владимир Николаев
Сборы в России: $5 337 851
Ре-релиз в РФ: 1 января 2015
Премьера в РФ: 1 января 2015
Премьера в мире: 12 декабря 2014
Жанр: мультфильм, фэнтези, приключения, семейный
Описание: Тщеславный тролль Орм давно мечтает о лаврах героя, и наконец получает этот шанс: северный ветер грозит миру вечной зимой и похищает Марибель. Рука принцессы и королевство троллей достанутся тому, кто вызволит ее из снежного плена. Однажды Орм победил зиму с помощью друзей, теперь он хочет действовать в одиночку. На нем доспехи из сковородок, за ним отряд трусливых троллей, а впереди опасный путь к замку Снежной королевы. Но, к счастью, друзья не помнят обид: храбрая Герда, застенчивый Кай, удалая Альфида и весёлая Лута не бросят Орма в беде. А значит их ждут невероятные приключения!
Рейтинг IMDB:
Рейтинг Kinopoisk:

Контейнер: MKV
Качество HD: WEB-DL 720p
Формат аудио: AC3
Формат видео: H.264
Видео: MPEG-4 AVC/H.264 , ~3927 Kbps , 1280x540
Аудио: Русский: AC3, 384 kb/s (6 ch)
Субтитры: отсутствуют
Присутствует навигация по главам
Код: Выделить всё
Format : Matroska
Format version : Version 4 / Version 2
File size : 2.41 GiB
Duration : 1h 18mn
Overall bit rate : 4 398 Kbps
Encoded date : UTC 2015-01-29 07:29:04
Writing application : mkvmerge v6.1.0 ('Old Devil') built on Mar 4 2013 09:10:42
Writing library : libebml v1.3.0 + libmatroska v1.4.0

Video
ID : 1
Format : AVC
Format/Info : Advanced Video Codec
Format profile : [email protected]
Format settings, CABAC : No
Format settings, ReFrames : 2 frames
Codec ID : V_MPEG4/ISO/AVC
Duration : 1h 18mn
Bit rate : 3 927 Kbps
Width : 1 280 pixels
Height : 540 pixels
Display aspect ratio : 2.40:1
Frame rate : 24.000 fps
Color space : YUV
Chroma subsampling : 4:2:0
Bit depth : 8 bits
Scan type : Progressive
Bits/(Pixel*Frame) : 0.237
Stream size : 2.15 GiB (89%)
Language : Russian
Default : Yes
Forced : No
Color primaries : BT.709-5, BT.1361, IEC 61966-2-4, SMPTE RP177
Transfer characteristics : BT.709-5, BT.1361
Matrix coefficients : BT.709-5, BT.1361, IEC 61966-2-4 709, SMPTE RP177

Audio
ID : 2
Format : AC-3
Format/Info : Audio Coding 3
Mode extension : CM (complete main)
Format settings, Endianness : Big
Codec ID : A_AC3
Duration : 1h 18mn
Bit rate mode : Constant
Bit rate : 384 Kbps
Channel(s) : 6 channels
Channel positions : Front: L C R, Side: L R, LFE
Sampling rate : 48.0 KHz
Bit depth : 16 bits
Compression mode : Lossy
Stream size : 215 MiB (9%)
Language : Russian
Default : Yes
Forced : No

Menu
00:00:00.000 : en:Глава 1
00:05:00.000 : en:Глава 2
00:09:13.000 : en:Глава 3
00:14:18.000 : en:Глава 4
00:20:49.000 : en:Глава 5
00:26:41.000 : en:Глава 6
00:32:15.000 : en:Глава 7
00:37:27.000 : en:Глава 8
00:41:54.000 : en:Глава 9
00:47:19.000 : en:Глава 10
00:52:57.000 : en:Глава 11
00:57:09.000 : en:Глава 12
01:01:48.000 : en:Глава 13
01:06:38.000 : en:Глава 14
01:10:37.000 : en:Глава 15
   
Торрент: Зарегистрирован [02 фев 2015, 18:10] Полнометражные Скачать торрент Магнет ссылка
Скачать торрент
[ Размер 12.71 КБ / Просмотров 346 ]
Статус:
Проверен
 
.torrent скачан: 2461 раз
Размер: 2.41 ГБ (2 583 955 310 байт)
   
 
 
Цитата
  • Похожие торренты
    Ответы
    Просмотры
    Последнее сообщение

Вернуться в Полнометражные

Кто сейчас на конференции

Сейчас эту тему просматривают: нет зарегистрированных пользователей и гости: 1