Android. Уровень 1 PCRec (2014) [RUS]

 Статистика раздачи 
Размер: 1.64 ГБ   |  Зарегистрирован: 29 янв 2015, 01:12   |   .torrent скачан: 2 раз
Сидеров: 22  [ 0 байт/сек ]     Личеров: 5  [ 0 байт/сек ]  
  
Аватара пользователя
Администратор
Администратор
Автор темы
Раздал: 24.47 ТБ
Скачал: 388.83 ГБ
Ратио: 145.334
Сообщения: 5358
Стаж: 6 лет 10 месяцев 18 дней
Откуда: Lithuania
СообщениеДобавлено: 29 янв 2015, 01:12


Android. Уровень 1 PCRec


Оригинальное название: Android. Уровень 1 PCRec
Дата выхода: 2014
Жанр: рограммирование, Android
Продолжительность: 15:00:00
Описание: В рамках программы курса вы познакомитесь с основами разработки приложений для платформы Android; научитесь конструировать пользовательский интерфейс приложения, работать с ресурсами и внешними файлами, меню и диалогами; узнаете, как происходит взаимодействие приложений в системе; познакомитесь с основами сетевого взаимодействия. Материалы данного курса – эта та база, без которой не возможно построить практически ни одно Android приложение.
Качество: PCRec
Формат видео: AVI
Формат аудио: MP3
Видео: ~95,6 kb/s 30,00 FPS, 800 x 600
Аудио #1: 128 kb/s (CBR), 2 Ch, 44100 Hz
Общее
Полное имя : C:\ШП Android Уровень 1
Формат : AVI
Формат/Информация : Audio Video Interleave
Размер файла : 93,6 Мбайт
Продолжительность : 54 м.
Общий поток : 242 Кбит/сек

Видео
Идентификатор : 0
Формат : AVC
Формат/Информация : Advanced Video Codec
Профиль формата : [email protected]
Параметр CABAC формата : Да
Параметр ReFrames формата : 3 кадра
Идентификатор кодека : H264
Продолжительность : 54 м.
Битрейт : 95,6 Кбит/сек
Ширина : 800 пикселей
Высота : 600 пикселей
Соотношение сторон : 4:3
Режим частоты кадров : Переменный
Частота кадров : 30,000 кадров/сек
Цветовое пространство : YUV
Субдискретизация насыщенности : 4:2:0
Битовая глубина : 8 бит
Тип развёртки : Прогрессивная
Бит/(Пиксели*Кадры) : 0.007
Размер потока : 37,0 Мбайт (40%)
Библиотека кодирования : x264 core 125 r2209 68dfb7b
Настройки программы : cabac=1 / ref=3 / deblock=1:0:0 / analyse=0x3:0x113 / me=hex / subme=7 / psy=1 / psy_rd=1.00:0.00 / mixed_ref=1 / me_range=16 / chroma_me=1 / trellis=1 / 8x8dct=1 / cqm=0 / deadzone=21,11 / fast_pskip=1 / chroma_qp_offset=-4 / threads=4 / lookahead_threads=1 / sliced_threads=0 / nr=0 / decimate=1 / interlaced=0 / bluray_compat=0 / constrained_intra=0 / bframes=0 / weightp=2 / keyint=250 / keyint_min=25 / scenecut=40 / intra_refresh=0 / rc=crf / mbtree=0 / crf=28.0 / qcomp=0.60 / qpmin=0 / qpmax=69 / qpstep=4 / ip_ratio=1.40 / aq=1:1.00

Аудио
Идентификатор : 1
Формат : MPEG Audio
Версия формата : Version 1
Профиль формата : Layer 3
Режим : Joint stereo
Расширение режима : MS Stereo
Идентификатор кодека : 55
Идентификатор кодека/Подсказка : MP3
Продолжительность : 54 м.
Продолжительность оригинала : 54 м.
Вид битрейта : Постоянный
Битрейт : 128 Кбит/сек
Каналы : 2 канала
Частота : 44,1 КГц
Метод сжатия : С потерями
Размер потока : 49,6 Мбайт (53%)
Выравнивание : Разделение по промежуткам
Продолжительность промежутка : 26 мс. (0,78 видеокадр)
Библиотека кодирования : LAME3.97

1. Введение в платформу Android

Знакомство. Программа курса
Общие сведения о платформе Android, историческая справка
Архитектура платформы Android
Этапы создания приложений, от идеи до GooglePlay
Установка и настройка необходимых инструментов
Основные компоненты Android SDK
Обзор среды разработки (Eclipse и AndroidStudio)
Пример простого приложения «Hello, Android!»

2. Структура Android приложения

Основные компоненты Android приложения
Модель безопасности и разрешения
Структура Android проекта
Жизненный цикл Activity и методы обратного вызова
Использование LogCat
Ресурсы в Android приложении (cтроки, размеры, цвета, массивы)
Альтернативные ресурсы и квалификаторы
Локализация приложения

3. Разработка пользовательского интерфейса (UI)

Особенности проектирования UI для мобильных платформ
Различия в проектировании UI для телефонов и планшетов
Основные характеристики экранов
Принципы построения UI в Android
Макеты и компоненты контейнеры
Обзор стандартных элементов UI в Android
Создание разных версий дизайна для различных конфигураций устройства

4. Меню и диалоги в Android

Меню в приложении Android
ActionBar, меню опций и контекстное меню элементов
Создание вложенных меню
Принципы построения диалоговых окон в Android
Класс DialogBuilder
Диалоги AlertDialog, TimePickerDialog и DatePickerDialog
Создание собственного диалогового окна

5. Коллекции в Android

Введение в концепцию MVC (Model-View-Controller)
Коллекции в Android и класс AdapterView
Использование компонента ListView
Различные источники данных для списков
Работа с элементами списка
Класс BaseAdapter, создание собственного адаптера
Работа с компонентом GridView
Работа с компонентом Spinner

6. Activity и класс Intent

Механизм намерений в Android
Добавление нового Activity в приложение
Явный вызов Activity и класс Intent
Передача параметров через объект Intent
Получение результата работы Activity
Неявный вызов Activity
Работа со стандартными приложениями (Телефон, SMS, Почта, Браузер)
Переопределение класса приложения

7. Хранение данных в Android

Обзор возможностей хранения данных в Android
Сохранение промежуточного состояния Activity
Класс SharedPreferences и настройки приложения
Работа с внутренней (защищенной) памятью
Получения состояния карты памяти
Работа с файлами на карте памяти
Разработка класса для работы с текстовыми файлами
Активы приложения и Raw ресурсы

8. Фрагменты и работа с web

Понятие фрагментов и их жизненный цикл
Архитектура фрагментов в Android
Классы Fragment и FragmentManager
Взаимодействие фрагментов с Activity
Использование фрагментов
Работа с протоколом HTTP в Android
Пример приложения web-клиента
Подведение итогов

   
Торрент: Зарегистрирован [29 янв 2015, 01:12] Скачать торрент Магнет ссылка
Скачать торрент
[ Размер 203.28 КБ / Просмотров 385 ]
Статус:
Проверен
 
.torrent скачан: 2 раз
Размер: 1.64 ГБ (1 755 923 845 байт)
   
 
 
Цитата
  • Похожие торренты
    Ответы
    Просмотры
    Последнее сообщение

Вернуться в Видео (avi, mp4.)

Кто сейчас на конференции

Сейчас эту тему просматривают: нет зарегистрированных пользователей и гости: 1