Ом Шанти Ом (Когда одной жизни мало) / Om Shanti Om (Фара Кхан / Farah Khan) [2007, Индия, Мелодрама, боевик, комедия, BDRip 1080p] MVO + Sub Rus, Eng + Original Hin

 Статистика раздачи 
Размер: 15.07 ГБ   |  Зарегистрирован: 30 сен 2018, 12:15   |   .torrent скачан: 0 раз
Сидеров: 1  [ 0 байт/сек ]     Личеров: 1  [ 0 байт/сек ]  
  
Аватара пользователя
Главный редактор
Главный редактор
 
Раздал: 53.85 ТБ
Скачал: 2.58 ТБ
Ратио: 21.280
Сообщения: 157072
Стаж: 8 лет 18 дней
Откуда: Санкт-Петербург

Ом Шанти Ом (Когда одной жизни мало) / Om Shanti Om

Страна: Индия
Студия: EROS International
Жанр: Мелодрама, боевик, комедия
Год выпуска: 2007
Продолжительность: 02:49:03
Перевод: Профессиональный (многоголосый закадровый)
Субтитры: Русские, английские, вьетнамские, венгерские
Оригинальная аудиодорожка: Хинди
Режиссер: Фара Кхан / Farah Khan
В ролях: Шахрукх Кхан, Дипика Падукон, Шреяс Талпаде, Арджун Рампал, Кирон Кхер, Амитабх Баччан, Салман Кхан, Ритик Рошан, Рани Мукхерджи, Абхишек Баччан, Акшай Кумар, Прити Зинта, Каджол, Шилпа Шетти, Санджай Датт, Рекха, Саиф Али Кхан, Приянка Чопра, Каришма Капур, Табу, Бобби Деол, Дхармендра, Лара Дата, Видья Балан, Джухи Чавла, Говинда, Митхун Чакраборти, Урмила Мотондкар, Ритеш Дешмукх, Зайед Кхан, Риши Капур, Сунил Шетти, Каран Джохар, Амрита Арора
Описание: Бомбей 70-х годов. Ом Пракаш Макхия и его друг Паппу хотят стать актёрами, но на данный момент исполняют только роли статистов в массовках. Мать Ома, бывшая исполнительница второстепенных ролей, убеждает сына, что когда-нибудь он станет героем большого проекта. Об этом он мечтает каждую минуту, поскольку влюблён в молодую звезду экрана Шанти. Когда во время съёмок случается пожар, Ом спасает Шанти жизнь и становится её другом...
Фильм-история о реинкарнации. Бомбей 70-х годов XX века. Ом Пракаш Макиджа (Шахрукх Кхан) и его лучший друг Паппу (Шреяс Талпаде) мечтают стать актерами, но пока им достаются только роли статистов. Мать Ома, тоже бывшая исполнительница второстепенных ролей в кино, убеждает сына, что когда-нибудь он все-таки станет звездой экрана! Об этом Ом мечтает каждую минуту, каждую секунду...Ведь он тайно и безответно влюблен в Шанти (Дипика Падукон), молодую и очаровательную кинозвезду. Когда во время съемок очередного фильма случается пожар, Ом спасает жизнь Шанти, и они становятся друзьями... Но это только начало волнующей и романтической истории Ома и Шанти
IMDB | Кинопоиск
Матрешку сделал: jasinpapa
BDRip от DustorrentS любезно предоставил Rahman1
Аудиодорожка от BwTorrentS
Сохранены оригинальные чаптеры как на Blu-ray
Сэмпл
Тип релиза: BDRip 1080p
Контейнер: MKV
Видео: AVC, 1920x816 (2.35:1), 23.976 fps, 10.3 Mbps (0.276 bit/pixel)
Аудио #1: AC-3, 48.0 KHz, 6 ch, 448 Kbps, CBR (Russian)
Аудио #2: DTS, 48.0 KHz, 6 ch, 1 510 Kbps, CBR (Hindi)
Аудио #3: AC-3, 48.0 KHz, 6 ch, 448 Kbps, CBR (Hindi)
Субтитры: Russian, English, Vietnamese, Magyar
Код: Выделить всё
Общее
Уникальный идентификатор                 : 216904536225930999497502374437842575339 (0xA32E4B4CB31FFC5B912F9CE43D5BDFEB)
Полное имя                               : J:\video\Om Shanti Om (2007) Bluray 1080p x264 DTS DUS.mkv
Формат                                   : Matroska
Версия формата                           : Version 4
Размер файла                             : 15,1 Гбайт
Продолжительность                        : 2 ч. 49 м.
Общий поток                              : 12,8 Мбит/сек
Дата кодирования                         : UTC 2013-04-21 14:03:42
Программа кодирования                    : mkvmerge v6.1.0 ('Old Devil') built on Mar  2 2013 14:32:37
Библиотека кодирования                   : libebml v1.3.0 + libmatroska v1.4.0
Видео
Идентификатор                            : 1
Формат                                   : AVC
Формат/Информация                        : Advanced Video Codec
Профиль формата                          : High@L4.1
Настройки формата                        : CABAC / 4 Ref Frames
Параметр CABAC формата                   : Да
Параметр RefFrames формата               : 4 кадра
Идентификатор кодека                     : V_MPEG4/ISO/AVC
Продолжительность                        : 2 ч. 49 м.
Битрейт                                  : 10,3 Мбит/сек
Ширина                                   : 1920 пикселей
Высота                                   : 816 пикселей
Соотношение сторон                       : 2,35:1
Режим частоты кадров                     : Постоянный
Частота кадров                           : 23,976 (24000/1001) кадра/сек
Цветовое пространство                    : YUV
Субдискретизация насыщенности            : 4:2:0
Битовая глубина                          : 8 бит
Тип развёртки                            : Прогрессивная
Бит/(Пиксели*Кадры)                      : 0.276
Размер потока                            : 11,9 Гбайт (79%)
Библиотека кодирования                   : x264 core 125 r2200 999b753
Настройки программы                      : cabac=1 / ref=3 / deblock=1:0:0 / analyse=0x3:0x113 / me=hex / subme=7 / psy=1 / psy_rd=1.00:0.00 / mixed_ref=1 / me_range=16 / chroma_me=1 / trellis=1 / 8x8dct=1 / cqm=0 / deadzone=21,11 / fast_pskip=1 / chroma_qp_offset=-2 / threads=12 / lookahead_threads=2 / sliced_threads=0 / nr=0 / decimate=1 / interlaced=0 / bluray_compat=0 / constrained_intra=0 / bframes=3 / b_pyramid=2 / b_adapt=1 / b_bias=0 / direct=1 / weightb=1 / open_gop=0 / weightp=2 / keyint=240 / keyint_min=23 / scenecut=40 / intra_refresh=0 / rc_lookahead=40 / rc=2pass / mbtree=1 / bitrate=10349 / ratetol=1.0 / qcomp=0.60 / qpmin=0 / qpmax=69 / qpstep=4 / cplxblur=20.0 / qblur=0.5 / ip_ratio=1.40 / aq=1:1.00
Язык                                     : English
Default                                  : Да
Forced                                   : Нет
Аудио #1
Идентификатор                            : 2
Формат                                   : AC-3
Формат/Информация                        : Audio Coding 3
Коммерческое название                    : Dolby Digital
Идентификатор кодека                     : A_AC3
Продолжительность                        : 2 ч. 49 м.
Вид битрейта                             : Постоянный
Битрейт                                  : 448 Кбит/сек
Каналы                                   : 6 каналов
Channel layout                           : L R C LFE Ls Rs
Частота                                  : 48,0 КГц
Частота кадров                           : 31,250 кадров/сек (1536 SPF)
Битовая глубина                          : 16 бит
Метод сжатия                             : С потерями
Размер потока                            : 542 Мбайт (4%)
Заголовок                                : BwTorrents
Язык                                     : Russian
ServiceKind/String                       : Complete Main
Default                                  : Да
Forced                                   : Да
Аудио #2
Идентификатор                            : 3
Формат                                   : DTS
Формат/Информация                        : Digital Theater Systems
Идентификатор кодека                     : A_DTS
Продолжительность                        : 2 ч. 49 м.
Вид битрейта                             : Постоянный
Битрейт                                  : 1510 Кбит/сек
Каналы                                   : 6 каналов
Channel layout                           : C L R Ls Rs LFE
Частота                                  : 48,0 КГц
Частота кадров                           : 93,750 кадра/сек (512 SPF)
Битовая глубина                          : 24 бит
Метод сжатия                             : С потерями
Размер потока                            : 1,78 Гбайт (12%)
Язык                                     : Hindi
Default                                  : Нет
Forced                                   : Нет
Аудио #3
Идентификатор                            : 6
Формат                                   : AC-3
Формат/Информация                        : Audio Coding 3
Коммерческое название                    : Dolby Digital
Идентификатор кодека                     : A_AC3
Продолжительность                        : 2 ч. 49 м.
Вид битрейта                             : Постоянный
Битрейт                                  : 448 Кбит/сек
Каналы                                   : 6 каналов
Channel layout                           : L R C LFE Ls Rs
Частота                                  : 48,0 КГц
Частота кадров                           : 31,250 кадров/сек (1536 SPF)
Битовая глубина                          : 16 бит
Метод сжатия                             : С потерями
Размер потока                            : 542 Мбайт (4%)
Заголовок                                : [xDR]
Язык                                     : Hindi
ServiceKind/String                       : Complete Main
Default                                  : Нет
Forced                                   : Нет
Текст #1
Идентификатор                            : 4
Формат                                   : UTF-8
Идентификатор кодека                     : S_TEXT/UTF8
Идентификатор кодека/Информация          : UTF-8 Plain Text
Язык                                     : Russian
Default                                  : Да
Forced                                   : Да
Текст #2
Идентификатор                            : 5
Формат                                   : VobSub
Режим смешивания                         : zlib
Идентификатор кодека                     : S_VOBSUB
Идентификатор кодека/Информация          : Picture based subtitle format used on DVDs
Язык                                     : English
Default                                  : Нет
Forced                                   : Нет
Текст #3
Идентификатор                            : 7
Формат                                   : UTF-8
Идентификатор кодека                     : S_TEXT/UTF8
Идентификатор кодека/Информация          : UTF-8 Plain Text
Язык                                     : Vietnamese
Default                                  : Нет
Forced                                   : Нет
Текст #4
Идентификатор                            : 8
Формат                                   : UTF-8
Идентификатор кодека                     : S_TEXT/UTF8
Идентификатор кодека/Информация          : UTF-8 Plain Text
Заголовок                                : Magyar
Default                                  : Нет
Forced                                   : Нет
Меню
00:00:00.000                             : en:00:00:00.000
00:01:24.042                             : en:00:01:24.042
00:04:14.379                             : en:00:04:14.379
00:09:48.046                             : en:00:09:48.046
00:11:54.756                             : en:00:11:54.756
00:13:23.553                             : en:00:13:23.553
00:16:52.887                             : en:00:16:52.887
00:28:20.324                             : en:00:28:20.324
00:38:24.469                             : en:00:38:24.469
00:45:54.293                             : en:00:45:54.293
00:53:05.808                             : en:00:53:05.808
00:56:16.498                             : en:00:56:16.498
01:00:39.135                             : en:01:00:39.135
01:11:55.937                             : en:01:11:55.937
01:17:07.540                             : en:01:17:07.540
01:25:47.351                             : en:01:25:47.351
01:32:11.109                             : en:01:32:11.109
01:40:45.706                             : en:01:40:45.706
01:58:46.286                             : en:01:58:46.286
02:00:39.983                             : en:02:00:39.983
02:13:16.780                             : en:02:13:16.780
02:16:56.083                             : en:02:16:56.083
02:27:25.420                             : en:02:27:25.420
02:34:46.360                             : en:02:34:46.360
02:43:01.063                             : en:02:43:01.063












Не забывайте говорить Спасибо. Не уходите с раздачи!   
Торрент: Зарегистрирован [30 сен 2018, 12:15] Для скачивания .torrent
необходима регистрация
Или скачать с помощью
MediaGet
Статус:
Проверен
 
.torrent скачан: 0 раз
Размер: 15.07 ГБ (16 182 751 231 байт)
   Стать Автором раздачи
   
Цитата
  • Похожие торренты
    Ответы
    Просмотры
    Последнее сообщение

Вернуться в Индийское кино

Кто сейчас на конференции

Сейчас эту тему просматривают: нет зарегистрированных пользователей и гости: 1