Joe Cocker • Live In Metropol Berlin 1980 [2014, Blues Rock, HDTV 720p]

 Статистика раздачи 
Размер: 8.75 ГБ   |  Зарегистрирован: 29 дек 2014, 17:57   |   .torrent скачан: 2 раз
Сидеров: 16  [ 0 байт/сек ]     Личеров: 7  [ 0 байт/сек ]  
  
Аватара пользователя
Главный редактор
Главный редактор
Автор темы
Раздал: 10.09 ТБ
Скачал: 1.76 ТБ
Ратио: 6.148
Сообщения: 3556
Стаж: 7 лет 1 месяц 17 дней
Откуда: Санкт-Петербург

Joe Cocker
Live In Metropol Berlin 1980


Оригинальное название: Live In Metropol Berlin 1980
Дата выхода: 2014 (1980)
Жанр: Blues Rock
Исполнитель: Joe Cocker
Страна: Germany
Продолжительность: 01:30:38
Описание: Видеозахват концерта с канала einsfestival 1 HD
Качество: HDTV 720p
Контейнер: TS
Формат аудио: AC3
Формат видео: H.264
Видео: MPEG4 Video (H264) 1280x720 50fps 12.7Mbps
Аудио: Английский: Dolby AC3 48000Hz stereo 448kbps
Релиз: meloman67
Joe Cocker (voc)
Cliff Goodwin (Lead Guitar)
Howard Hersh (Bass)
Mitch Chakour (Piano)
Larry Marshall (Organ)
Eric Parker (Drums)
Maxine Green (Voc)
Dede Washburn (Voc)
Anne Lang (Voc)

01. Cry Me a River (Julie London cover)
02. I Can't Say No
03. Feelin' Alright (Traffic cover)
04. Look What You've Done
05. Put Out the Light
06 A Whiter Shade of Pale (Procol Harum cover)
07. Delta Lady (Leon Russell cover)
08. So Blue
09. Fun Time
10. Just Like Always
11. The Jealous Kind
12 Hitchcock Railway
13. Watching the River Flow
14. Sweet Forgiveness
15. You Are So Beautiful (Billy Preston cover)
16. With a Little Help from My Friends (The Beatles cover)

Encore:

17. Wasted Years
18. I Heard It Through the Grapevine (Smokey Robinson & The Miracles cover)
19. The Letter (The Box Tops cover)

Encore 2:

20. High Time We Went

Код: Выделить всё
General
ID                             : 1 (0x1)
Complete name                  : Joe Cocker - Metropol Berlin 1980.ts
Format                         : MPEG-TS
File size                      : 8.75 GiB
Duration                       : 1h 30mn
Overall bit rate mode          : Variable
Overall bit rate               : 13.8 Mbps
Video
ID                             : 5411 (0x1523)
Menu ID                        : 1 (0x1)
Format                         : AVC
Format/Info                    : Advanced Video Codec
Format profile                 : [email protected]
Format settings, CABAC         : Yes
Format settings, ReFrames      : 4 frames
Codec ID                       : 27
Duration                       : 1h 30mn
Bit rate                       : 12.7 Mbps
Width                          : 1 280 pixels
Height                         : 720 pixels
Display aspect ratio           : 16:9
Frame rate                     : 50.000 fps
Color space                    : YUV
Chroma subsampling             : 4:2:0
Bit depth                      : 8 bits
Scan type                      : Progressive
Bits/(Pixel*Frame)             : 0.275
Stream size                    : 8.03 GiB (92%)
Audio
ID                             : 5416 (0x1528)
Menu ID                        : 1 (0x1)
Format                         : AC-3
Format/Info                    : Audio Coding 3
Mode extension                 : CM (complete main)
Format settings, Endianness    : Big
Codec ID                       : 6
Duration                       : 1h 30mn
Bit rate mode                  : Constant
Bit rate                       : 448 Kbps
Channel(s)                     : 2 channels
Channel positions              : Front: L R
Sampling rate                  : 48.0 KHz
Bit depth                      : 16 bits
Compression mode               : Lossy
Stream size                    : 290 MiB (3%)
Language                       : German
   
Торрент: Зарегистрирован [29 дек 2014, 17:57] Скачать торрент Магнет ссылка
Скачать торрент
[ Размер 22.39 КБ / Просмотров 304 ]
Статус:
Проверен
 
.torrent скачан: 2 раз
Размер: 8.75 ГБ (9 396 928 644 байт)
   
 
 
Цитата

Вернуться в New Music video (HD/DVD)

Кто сейчас на конференции

Сейчас эту тему просматривают: нет зарегистрированных пользователей и гости: 1