[BR][OF] (Progressive Rock) Pink Floyd - The Endless River (Deluxe Edition) - 2014

 Статистика раздачи 
Размер: 16.07 ГБ   |  Зарегистрирован: 27 дек 2014, 01:11   |   .torrent скачан: 4 раз
Сидеров: 30  [ 0 байт/сек ]     Личеров: 0  [ 0 байт/сек ]  
  
Аватара пользователя
Главный редактор
Главный редактор
Автор темы
Раздал: 10.09 ТБ
Скачал: 1.76 ТБ
Ратио: 6.147
Сообщения: 3365
Стаж: 7 лет 29 дней
Откуда: Санкт-Петербург

Pink Floyd - The Endless River

Deluxe Edition


Оригинальное название: Pink Floyd - The Endless River
Дата выхода: 2014
Страна: UK
Жанр: Progressive Rock
Производитель Диска - Лейбл: Parlophone Records Ltd, Warner Music Group Compan
Продолжительность: 01:32:14
Разрядность: 24-bit, 96kHz
Аудио кодек: DTS-HD Master, LPCM
Количество каналов: 5.1, 2.0
Тип рипа: BDMV
Качество: Blu-ray Audio 1080p
Видео: MPEG-4 AVC Video / 126 kbps / 1080p / 23,976 fps / 16:9 / High Profile 4.1
Аудио 1: LPCM Audio English 13824 kbps 5.1 / 96 kHz / 24-bit
Аудио 2: DTS-HD Master Audio English 7970 kbps 5.1 / 96 kHz / 24-bit (DTS Core: 5.1 / 48 kHz / 1509 kbps / 24-bit)
Аудио 3: LPCM Audio English 4608 kbps 2.0 / 96 kHz / 24-bit
Источник (релизер): Alder (Андрей М@льщуков, Maxx Poverinov)
The Endless River:

01. Things Left Unsaid (4:26)
02. It's What We Do (6:15)
03. Ebb and Flow (1:58)
04. Sum (4:49)
05. Skins (2:38)
06. Unsung (1:07)
07. Anisina (3:15)
08. The Lost Art of Conversation (1:44)
09. On Noodle Street (1:42)
10. Night Light (1:42)
11. Allons-YS (1) (1:57)
12. Autumn '68 (1:35)
13. Allons-Y (2) (1:35)
14. Talkin' Hawkin' (3:26)
15. Calling (3:39)
16. Eyes to Pearls (1:51)
17. Surfacing (2:47)
18. Louder Than Words (6:32)

Bonus Content

Video tracks:

01. Anisina (2014) (2:49)
02. Untitled (1993) (1:20)
03. Evrika (a) (1993) (5:56)
04. Nervana (1993) (5:31)
05. Allons-Y (1993) (5:58)
06. Evrika (b) (1993) (5:32)

Audio tracks:

07. TBS9 (1993) (2:28)
08. TBS14 (1993) (4:11)
09. Nervana (1993) (5:31)

Disc Title: Pink Floyd - The Endless River [Deluxe Edition] (2014) Blu-ray Audio
Disc Size: 17 256 847 529 bytes
Protection: AACS
BD-Java: No
Notes:
BDINFO HOME AND REPORTS SUBMISSION:
Cinema Squid
http://www.cinemasquid.com/Tools.aspx
INCLUDES FORUMS REPORT FOR:
Unofficial Blu-ray Audio and Video Specifications Thread
http://www.avsforum.com/avs-vb/showthread.php?t=760714
http://forum.blu-ray.com/showthread.php?t=3338
********************
PLAYLIST: 00000.MPLS
********************
<--- BEGIN SUMMARY PASTE --->

Код:
Total Video
Title Codec Length Movie Size Disc Size Bitrate Bitrate Main Audio Track Secondary Audio Track
----- ------ ------- -------------- -------------- ------- ------- ------------------ ---------------------
00000.MPLS AVC 0:52:58 11 287 824 384 17 256 847 529 28,41 0,13 LPCM 5.1 13824Kbps (96kHz/24-bit) DTS-HD Master 5.1 7970Kbps (96kHz/24-bit)

<---- END SUMMARY PASTE ---->
<--- BEGIN DETAILS PASTE --->

Код:
DISC INFO:
Disc Title: Pink Floyd - The Endless River [Deluxe Edition] (2014) Blu-ray Audio
Disc Size: 17 256 847 529 bytes
Protection: AACS
BD-Java: No
PLAYLIST REPORT:
Name: 00000.MPLS
Size: 11 287 824 384 bytes
Length: 0:52:58 (h:m:s)
Total Bitrate: 28,41 Mbps
Description:
VIDEO:
Codec Bitrate Description
----- ------- -----------
MPEG-4 AVC Video 126 kbps 1080p / 23,976 fps / 16:9 / High Profile 4.1
AUDIO:
Codec Language Bitrate Description
----- -------- ------- -----------
LPCM Audio English 13824 kbps 5.1 / 96 kHz / 13824 kbps / 24-bit
DTS-HD Master Audio English 7970 kbps 5.1 / 96 kHz / 7970 kbps / 24-bit (DTS Core: 5.1 / 48 kHz / 1536 kbps / 24-bit)
LPCM Audio English 4608 kbps 2.0 / 96 kHz / 4608 kbps / 24-bit
FILES:
Name Time In Length Size Total Bitrate
---- ------- ------ ---- -------------
00011.M2TS 0:00:00.000 0:52:58.550 11 287 824 384 28 410
CHAPTERS:
Number Time In Length Avg Video Rate Max 1-Sec Rate Max 1-Sec Time Max 5-Sec Rate Max 5-Sec Time Max 10Sec Rate Max 10Sec Time Avg Frame Size Max Frame Size Max Frame Time
------ ------- ------ -------------- -------------- -------------- -------------- -------------- -------------- -------------- -------------- -------------- --------------
1 0:00:00.000 0:04:26.265 134 kbps 136 kbps 00:04:25.265 134 kbps 00:04:21.260 134 kbps 00:04:16.255 697 bytes 9 733 bytes 00:04:26.265
2 0:04:26.265 0:06:14.916 136 kbps 211 kbps 00:10:10.151 151 kbps 00:10:06.147 144 kbps 00:10:01.142 710 bytes 9 734 bytes 00:08:31.511
3 0:10:41.182 0:01:57.826 128 kbps 161 kbps 00:12:38.007 135 kbps 00:12:34.003 132 kbps 00:12:28.998 668 bytes 8 759 bytes 00:12:01.262
4 0:12:39.008 0:04:49.038 93 kbps 132 kbps 00:17:27.046 101 kbps 00:17:23.042 97 kbps 00:17:18.037 485 bytes 5 266 bytes 00:17:28.047
5 0:17:28.047 0:02:37.574 101 kbps 147 kbps 00:20:04.620 110 kbps 00:20:00.616 105 kbps 00:19:55.611 524 bytes 6 172 bytes 00:20:05.621
6 0:20:05.621 0:01:06.649 108 kbps 153 kbps 00:21:11.270 117 kbps 00:21:07.265 112 kbps 00:21:02.261 563 bytes 6 172 bytes 00:20:06.622
7 0:21:12.271 0:03:15.194 107 kbps 190 kbps 00:24:26.465 123 kbps 00:24:22.460 115 kbps 00:24:17.455 557 bytes 16 410 bytes 00:24:27.465
8 0:24:27.465 0:01:44.104 189 kbps 190 kbps 00:24:27.466 190 kbps 00:24:27.465 190 kbps 00:24:27.466 985 bytes 16 410 bytes 00:24:28.467
9 0:26:11.570 0:01:42.101 139 kbps 140 kbps 00:26:11.570 140 kbps 00:26:11.569 140 kbps 00:26:11.570 726 bytes 10 184 bytes 00:26:12.571
10 0:27:53.672 0:01:42.101 104 kbps 121 kbps 00:29:34.773 107 kbps 00:29:30.768 106 kbps 00:29:25.764 545 bytes 7 793 bytes 00:29:35.774
11 0:29:35.774 0:01:56.699 121 kbps 178 kbps 00:31:31.472 132 kbps 00:31:27.468 126 kbps 00:31:22.463 629 bytes 7 794 bytes 00:29:50.789
12 0:31:32.473 0:01:35.512 119 kbps 182 kbps 00:33:06.985 131 kbps 00:33:02.980 125 kbps 00:32:57.976 620 bytes 8 288 bytes 00:33:07.986
13 0:33:07.986 0:01:35.095 125 kbps 129 kbps 00:34:42.080 125 kbps 00:34:38.076 125 kbps 00:34:33.071 649 bytes 8 866 bytes 00:34:43.081
14 0:34:43.081 0:03:26.205 129 kbps 129 kbps 00:36:13.171 129 kbps 00:36:13.171 129 kbps 00:36:13.171 673 bytes 8 870 bytes 00:36:14.172
15 0:38:09.286 0:03:38.885 104 kbps 171 kbps 00:41:47.171 117 kbps 00:41:43.167 110 kbps 00:41:38.162 541 bytes 8 704 bytes 00:41:48.172
16 0:41:48.172 0:01:51.444 128 kbps 187 kbps 00:43:38.616 140 kbps 00:43:34.612 134 kbps 00:43:29.607 668 bytes 8 705 bytes 00:42:38.222
17 0:43:39.617 0:02:46.708 121 kbps 215 kbps 00:46:25.324 139 kbps 00:46:21.320 130 kbps 00:46:16.315 628 bytes 12 244 bytes 00:46:26.325
18 0:46:26.325 0:06:32.225 156 kbps 156 kbps 00:52:57.507 156 kbps 00:48:02.880 156 kbps 00:48:02.880 813 bytes 12 245 bytes 00:46:53.352
STREAM DIAGNOSTICS:
File PID Type Codec Language Seconds Bitrate Bytes Packets
---- --- ---- ----- -------- -------------- -------------- ------------- -----
00011.M2TS 4113 (0x1011) 0x1B AVC 3178,550 126 49 905 567 293 134
00011.M2TS 4352 (0x1100) 0x80 LPCM eng (English) 3178,550 4 614 1 833 393 408 10 171 392
00011.M2TS 4353 (0x1101) 0x86 DTS-HD MA eng (English) 3178,550 7 970 3 166 510 560 17 705 529
00011.M2TS 4354 (0x1102) 0x80 LPCM eng (English) 3178,550 13 830 5 495 094 528 30 514 176

<---- END DETAILS PASTE ---->
********************
PLAYLIST: 00010.MPLS
********************
<--- BEGIN SUMMARY PASTE --->

Код:
Total Video
Title Codec Length Movie Size Disc Size Bitrate Bitrate Main Audio Track Secondary Audio Track
----- ------ ------- -------------- -------------- ------- ------- ------------------ ---------------------
00010.MPLS AVC 0:39:15 5 560 350 720 17 256 847 529 18,88 13,32 LPCM 2.0 4608Kbps (96kHz/24-bit)

<---- END SUMMARY PASTE ---->
<--- BEGIN DETAILS PASTE --->

Код:
DISC INFO:
Disc Title: Pink Floyd - The Endless River [Deluxe Edition] (2014) Blu-ray Audio
Disc Size: 17 256 847 529 bytes
Protection: AACS
BD-Java: No
PLAYLIST REPORT:
Name: 00010.MPLS
Size: 5 560 350 720 bytes
Length: 0:39:15 (h:m:s)
Total Bitrate: 18,88 Mbps
Description:
VIDEO:
Codec Bitrate Description
----- ------- -----------
MPEG-4 AVC Video 13316 kbps 1080p / 23,976 fps / 16:9 / High Profile 4.1
AUDIO:
Codec Language Bitrate Description
----- -------- ------- -----------
LPCM Audio English 4608 kbps 2.0 / 96 kHz / 4608 kbps / 24-bit
FILES:
Name Time In Length Size Total Bitrate
---- ------- ------ ---- -------------
00002.M2TS 0:00:00.000 0:02:48.751 562 790 400 26 680
00003.M2TS 0:02:48.751 0:01:20.288 220 618 752 21 983
00004.M2TS 0:04:09.040 0:05:56.147 1 150 808 064 25 850
00005.M2TS 0:10:05.187 0:05:30.705 1 056 970 752 25 569
00006.M2TS 0:15:35.893 0:05:58.232 1 157 640 192 25 852
00010.M2TS 0:21:34.126 0:05:31.372 948 756 480 22 905
00007.M2TS 0:27:05.498 0:02:28.106 93 745 152 5 064
00009.M2TS 0:29:33.605 0:04:11.292 159 055 872 5 064
00008.M2TS 0:33:44.897 0:05:31.039 209 965 056 5 074
CHAPTERS:
Number Time In Length Avg Video Rate Max 1-Sec Rate Max 1-Sec Time Max 5-Sec Rate Max 5-Sec Time Max 10Sec Rate Max 10Sec Time Avg Frame Size Max Frame Size Max Frame Time
------ ------- ------ -------------- -------------- -------------- -------------- -------------- -------------- -------------- -------------- -------------- --------------
1 0:00:00.000 0:02:48.751 20 788 kbps 39 305 kbps 00:00:36.745 29 982 kbps 00:00:36.619 27 025 kbps 00:00:36.745 108 351 bytes 891 119 bytes 00:01:11.488
2 0:02:48.751 0:01:20.288 16 284 kbps 18 855 kbps 00:04:05.870 17 537 kbps 00:04:03.576 17 184 kbps 00:03:58.571 84 898 bytes 173 737 bytes 00:03:00.763
3 0:04:09.040 0:05:56.147 19 993 kbps 22 024 kbps 00:05:15.606 21 847 kbps 00:06:39.690 21 697 kbps 00:06:36.646 104 232 bytes 213 229 bytes 00:05:16.274
4 0:10:05.187 0:05:30.705 19 723 kbps 32 471 kbps 00:13:22.927 25 789 kbps 00:14:19.400 24 272 kbps 00:14:17.481 102 827 bytes 233 506 bytes 00:14:12.601
5 0:15:35.893 0:05:58.232 19 995 kbps 21 172 kbps 00:18:48.085 20 975 kbps 00:18:45.707 20 826 kbps 00:20:41.740 104 242 bytes 214 161 bytes 00:19:34.131
6 0:21:34.126 0:05:31.372 17 154 kbps 23 009 kbps 00:26:42.559 21 924 kbps 00:26:45.311 21 659 kbps 00:26:42.017 89 431 bytes 225 295 bytes 00:25:53.343
7 0:27:05.498 0:02:28.106 87 kbps 114 kbps 00:29:32.604 93 kbps 00:29:28.600 90 kbps 00:29:23.595 456 bytes 3 624 bytes 00:29:12.625
8 0:29:33.605 0:04:11.292 87 kbps 123 kbps 00:33:43.896 94 kbps 00:33:39.892 91 kbps 00:33:34.887 455 bytes 4 827 bytes 00:33:44.897
9 0:33:44.897 0:05:31.039 98 kbps 98 kbps 00:38:00.152 98 kbps 00:38:00.152 98 kbps 00:38:00.152 509 bytes 4 835 bytes 00:38:01.153
STREAM DIAGNOSTICS:
File PID Type Codec Language Seconds Bitrate Bytes Packets
---- --- ---- ----- -------- -------------- -------------- ------------- -----
00002.M2TS 4113 (0x1011) 0x1B AVC 168,752 20 788 438 495 783 2 385 484
00002.M2TS 4352 (0x1100) 0x80 LPCM eng (English) 168,752 4 615 97 340 768 540 032
00003.M2TS 4113 (0x1011) 0x1B AVC 80,289 16 284 163 429 362 889 331
00003.M2TS 4352 (0x1100) 0x80 LPCM eng (English) 80,289 4 616 46 328 576 257 024
00004.M2TS 4113 (0x1011) 0x1B AVC 356,147 19 993 890 035 996 4 842 143
00004.M2TS 4352 (0x1100) 0x80 LPCM eng (English) 356,147 4 615 205 433 088 1 139 712
00005.M2TS 4113 (0x1011) 0x1B AVC 330,705 19 723 815 313 772 4 435 645
00005.M2TS 4352 (0x1100) 0x80 LPCM eng (English) 330,705 4 615 190 759 296 1 058 304
00006.M2TS 4113 (0x1011) 0x1B AVC 358,233 19 995 895 336 782 4 870 974
00006.M2TS 4352 (0x1100) 0x80 LPCM eng (English) 358,233 4 614 206 632 832 1 146 368
00010.M2TS 4113 (0x1011) 0x1B AVC 331,373 17 153 710 524 920 3 866 186
00010.M2TS 4352 (0x1100) 0x80 LPCM eng (English) 331,373 4 631 191 803 304 1 064 096
00007.M2TS 4113 (0x1011) 0x1B AVC 148,106 88 1 619 943 9 766
00007.M2TS 4352 (0x1100) 0x80 LPCM eng (English) 148,106 4 610 85 349 096 473 504
00009.M2TS 4113 (0x1011) 0x1B AVC 251,293 87 2 737 968 16 586
00009.M2TS 4352 (0x1100) 0x80 LPCM eng (English) 251,293 4 610 144 814 292 803 408
00008.M2TS 4113 (0x1011) 0x1B AVC 331,039 98 4 045 871 24 149
00008.M2TS 4352 (0x1100) 0x80 LPCM eng (English) 331,039 4 610 190 759 296 1 058 304

<---- END DETAILS PASTE ---->

The Endless River (с англ. Бесконечная река) — предстоящий пятнадцатый студийный альбом британской рок-группы Pink Floyd. Продюсером альбома выступит Дэвид Гилмор. Выпуском альбома в Великобритании будет заниматься Parlophone Records, а в США — Warner Bros. Records. Релиз альбома планируется 10 ноября 2014 года.

Название альбома «The Endless River» взято из текста песни «High Hopes» из предыдущего альбома группы The Division Bell, который был выпущен 20 лет назад. Название заключительного трека «Louder Than Words» взято из текста песни «Sorrow» с альбома A Momentary Lapse of Reason 1987 года, а название песни «Autumn '68» отсылает к композиции «Summer '68» с альбома Atom Heart Mother, выпущенного в 1970 году. В написании текста к композиции «Louder Than Words» приняла участие супруга Дэвида Гилмора Полли Сэмсон.
Концепция обложки, на которой мужчина управляет лодкой в облачной реке, была разработана 18-летним диджитал-художником из Египта Ахмедом Эмадом Элдином. Его изображение было позже доработано британским дизайн-агентством Stylorouge. В Лондоне обложка представлена в виде восьмиметрового куба, установленного в Саут-Банке.

Легендарный британская рок-группа Pink Floyd завершает свою студийную работу — последним альбомом станет «The Endless River», выход которого планируется осенью текущего года, сообщает ТАСС.
«Это будет последняя вещь от нас. Обидно конечно, но это конец», — поделились участники Pink Floyd — барабанщик Ник Мейсон и гитарист Дэвид Гилмор.
Гилмор добавил, что в планируемых сольных альбомах намерен использовать материал, записанный совместно с покойным клавишником группы Ричардом Райтом.
«У меня есть немного записей с Риком, которые, надеюсь, появятся на моем следующем сольном альбоме, но не на пинкфлойдовском диске», — отметил он.
Последний альбом Pink Floyd «The Endless River» увидит свет 10 ноября текущего года.
Жена лидера коллектива Дэвида Гилмора Полли Самсон рассказала, что песни для нового диска были подготовлены еще в 1994 году, во время работы над альбомом «The Division Bell», который в этом году отмечает свое 20-летие. Музыка для «The Endless River» была написана Гилмором, Ником Мэйсоном и Ричардом Райтом. Что касается, вокальной партии, то она писалась на протяжении последнего года.
Бывший участник Pink Floyd Роджер Уотерс, возглавлявший коллектив на протяжении 17 лет, заявил, что не имеет никакого отношения к новому альбому, поскольку покинул группу еще в 1984 году.

Дэвид Гилмор: гитара, вокал, бэк-вокал
Ник Мэйсон: ударные, гонг, перкуссия
Рик Райт: клавишные
Боб Эзрин: бас-гитара, клавишные
Гай Пратт: бас-гитара
Эндрю Джексон: бас-гитара
Джон Кэрин: клавишные, перкуссия
Энтони Мур: клавишные
Деймон Иддинс: клавишные
Гилад Ацмон: кларнет, тенор-саксофон
Дурга Макбрум, Сара Браун, Луиза Маршалл: бэк-вокал
Стивен Хокинг: голосовые семплы
Струнный квартет Escala
Виктория Лион: скрипка
Онор Уотсон: скрипка
Шанталь Левертон: альт
Хелен Нэш: виолончель
Студия: Astoria (Хэмптон)
Звукорежиссеры: Эндрю Джексон, Деймон Иддинс
Продюсеры: Дэвид Гилмор, Фил Манзанера, Мартин Гловер

phpBB [media]


phpBB [media]

   
Торрент: Зарегистрирован [27 дек 2014, 01:11] Конверсии в Blu-Ray Скачать торрент Магнет ссылка
Скачать торрент
[ Размер 46.43 КБ / Просмотров 436 ]
Статус:
Проверен
 
.torrent скачан: 4 раз
Размер: 16.07 ГБ (17 256 847 529 байт)
   
 
 
Цитата
  • Похожие торренты
    Ответы
    Просмотры
    Последнее сообщение

Вернуться в Конверсии в Blu-Ray

Кто сейчас на конференции

Сейчас эту тему просматривают: нет зарегистрированных пользователей и гости: 1