(Alt. Rock, Electronic, Experimental) [CD] Дельфин - Андрей - 2014, FLAC (tracks+.cue), lossless

 Статистика раздачи 
Размер: 503.47 МБ   |  Зарегистрирован: 25 дек 2014, 00:03   |   .torrent скачан: 2 раз
Сидеров: 42  [ 0 байт/сек ]     Личеров: 12  [ 0 байт/сек ]  
  
Аватара пользователя
Главный редактор
Главный редактор
Автор темы
Раздал: 10.09 ТБ
Скачал: 1.76 ТБ
Ратио: 6.147
Сообщения: 3344
Стаж: 6 лет 2 месяца 23 дня
Откуда: Санкт-Петербург

Дельфин - Андрей


Оригинальное название: Дельфин - Андрей
Страна: Россия
Производитель Диска - Лейбл: Мистерия звука (CD-M+326-2)
Жанр: Alt. Rock, Electronic, Experimental
Дата выхода: 2014
Формат аудио: FLAC
Исполнитель: Дельфин
Тип рипа: tracks+.cue
Битрэйт: lossless
Продолжительность: 00:55:07
Источник (релизер): Musicforce
Наличие сканов в содержимом раздачи: да [1200 DPI]
01. Листья
02. Девять
03. Двое
04. Обман
05. []
06. Слышишь
07. Забудь
08. Надя
09. Сажа
10. Дальше
11. Запись
12. Искра
13. Земля

Код: Выделить всё
Exact Audio Copy V1.0 beta 3 from 29. August 2011
EAC extraction logfile from 20. December 2014, 14:50
Дельфин / Андрей
Used drive  : PIONEER DVD-RW DVRTD11RS   Adapter: 0  ID: 0
Read mode               : Secure
Utilize accurate stream : Yes
Defeat audio cache      : Yes
Make use of C2 pointers : No
Read offset correction                      : 6
Overread into Lead-In and Lead-Out          : No
Fill up missing offset samples with silence : Yes
Delete leading and trailing silent blocks   : No
Null samples used in CRC calculations       : Yes
Used interface                              : Native Win32 interface for Win NT & 2000
Gap handling                                : Appended to previous track
Used output format              : User Defined Encoder
Selected bitrate                : 128 kBit/s
Quality                         : High
Add ID3 tag                     : Yes
Command line compressor         : C:\Program Files\flac-1.3.0-x64-icl\flac.exe
Additional command line options : -V -8 -T "Genre=%genre%" -T "Artist=%artist%" -T "Title=%title%" -T "Album=%albumtitle%" -T "Date=%year%" -T "Tracknumber=%tracknr%" -T "Comment=%comment%" %source%
TOC of the extracted CD
     Track |   Start  |  Length  | Start sector | End sector
    ---------------------------------------------------------
        1  |  0:00.00 |  5:25.32 |         0    |    24406
        2  |  5:25.32 |  4:24.30 |     24407    |    44236
        3  |  9:49.62 |  3:08.45 |     44237    |    58381
        4  | 12:58.32 |  5:07.53 |     58382    |    81459
        5  | 18:06.10 |  3:59.34 |     81460    |    99418
        6  | 22:05.44 |  5:45.00 |     99419    |   125293
        7  | 27:50.44 |  2:07.15 |    125294    |   134833
        8  | 29:57.59 |  5:19.33 |    134834    |   158791
        9  | 35:17.17 |  3:51.13 |    158792    |   176129
       10  | 39:08.30 |  4:01.69 |    176130    |   194273
       11  | 43:10.24 |  3:18.02 |    194274    |   209125
       12  | 46:28.26 |  4:31.66 |    209126    |   229516
       13  | 51:00.17 |  4:06.66 |    229517    |   248032
Track  1
     Filename E:\Music\Дельфин - Андрей (2014)\01. Дельфин - Листья.wav
     Pre-gap length  0:00:02.00
     Peak level 70.9 %
     Extraction speed 1.4 X
     Track quality 100.0 %
     Test CRC 14AC6556
     Copy CRC 14AC6556
     Track not present in AccurateRip database
     Copy OK
Track  2
     Filename E:\Music\Дельфин - Андрей (2014)\02. Дельфин - Девять.wav
     Peak level 98.8 %
     Extraction speed 1.6 X
     Track quality 100.0 %
     Test CRC 054BE6BC
     Copy CRC 054BE6BC
     Track not present in AccurateRip database
     Copy OK
Track  3
     Filename E:\Music\Дельфин - Андрей (2014)\03. Дельфин - Двое.wav
     Peak level 96.6 %
     Extraction speed 1.6 X
     Track quality 100.0 %
     Test CRC 8F8D77F9
     Copy CRC 8F8D77F9
     Track not present in AccurateRip database
     Copy OK
Track  4
     Filename E:\Music\Дельфин - Андрей (2014)\04. Дельфин - Обман.wav
     Peak level 98.4 %
     Extraction speed 1.8 X
     Track quality 100.0 %
     Test CRC 46529493
     Copy CRC 46529493
     Track not present in AccurateRip database
     Copy OK
Track  5
     Filename E:\Music\Дельфин - Андрей (2014)\05. Дельфин - [].wav
     Peak level 98.8 %
     Extraction speed 1.9 X
     Track quality 100.0 %
     Test CRC 0EBF6503
     Copy CRC 0EBF6503
     Track not present in AccurateRip database
     Copy OK
Track  6
     Filename E:\Music\Дельфин - Андрей (2014)\06. Дельфин - Слышишь.wav
     Peak level 98.8 %
     Extraction speed 2.1 X
     Track quality 100.0 %
     Test CRC 30372D23
     Copy CRC 30372D23
     Track not present in AccurateRip database
     Copy OK
Track  7
     Filename E:\Music\Дельфин - Андрей (2014)\07. Дельфин - Забудь.wav
     Peak level 98.8 %
     Extraction speed 1.9 X
     Track quality 100.0 %
     Test CRC 02913E7A
     Copy CRC 02913E7A
     Track not present in AccurateRip database
     Copy OK
Track  8
     Filename E:\Music\Дельфин - Андрей (2014)\08. Дельфин - Надя.wav
     Peak level 97.9 %
     Extraction speed 2.3 X
     Track quality 100.0 %
     Test CRC CFDD488F
     Copy CRC CFDD488F
     Track not present in AccurateRip database
     Copy OK
Track  9
     Filename E:\Music\Дельфин - Андрей (2014)\09. Дельфин - Сажа.wav
     Peak level 94.5 %
     Extraction speed 2.3 X
     Track quality 100.0 %
     Test CRC 6844B654
     Copy CRC 6844B654
     Track not present in AccurateRip database
     Copy OK
Track 10
     Filename E:\Music\Дельфин - Андрей (2014)\10. Дельфин - Дальше.wav
     Peak level 98.8 %
     Extraction speed 2.4 X
     Track quality 100.0 %
     Test CRC E30A2075
     Copy CRC E30A2075
     Track not present in AccurateRip database
     Copy OK
Track 11
     Filename E:\Music\Дельфин - Андрей (2014)\11. Дельфин - Запись.wav
     Peak level 50.0 %
     Extraction speed 2.4 X
     Track quality 100.0 %
     Test CRC 36939ACB
     Copy CRC 36939ACB
     Track not present in AccurateRip database
     Copy OK
Track 12
     Filename E:\Music\Дельфин - Андрей (2014)\12. Дельфин - Искра.wav
     Peak level 95.6 %
     Extraction speed 2.3 X
     Track quality 99.9 %
     Test CRC A7D3FB28
     Copy CRC A7D3FB28
     Track not present in AccurateRip database
     Copy OK
Track 13
     Filename E:\Music\Дельфин - Андрей (2014)\13. Дельфин - Земля.wav
     Peak level 98.3 %
     Extraction speed 2.6 X
     Track quality 100.0 %
     Test CRC 334140F8
     Copy CRC 334140F8
     Track not present in AccurateRip database
     Copy OK
None of the tracks are present in the AccurateRip database
No errors occurred
End of status report
==== Log checksum 45AFDBF207F14FEF0BE2CA9C6B708C760857916B3D72765937A2B57E151FB12D ====

Код: Выделить всё
REM GENRE "Alt. Rock, Electronic, Experimental"
REM DATE 2014
REM DISCID BA0CEB0D
REM COMMENT "ExactAudioCopy v1.0b3"
PERFORMER "Дельфин"
TITLE "Андрей"
FILE "01. Листья.wav" WAVE
  TRACK 01 AUDIO
    TITLE "Листья"
    PERFORMER "Дельфин"
    INDEX 01 00:00:00
FILE "02. Девять.wav" WAVE
  TRACK 02 AUDIO
    TITLE "Девять"
    PERFORMER "Дельфин"
    INDEX 01 00:00:00
FILE "03. Двое.wav" WAVE
  TRACK 03 AUDIO
    TITLE "Двое"
    PERFORMER "Дельфин"
    INDEX 01 00:00:00
FILE "04. Обман.wav" WAVE
  TRACK 04 AUDIO
    TITLE "Обман"
    PERFORMER "Дельфин"
    INDEX 01 00:00:00
FILE "05. [].wav" WAVE
  TRACK 05 AUDIO
    TITLE "[]"
    PERFORMER "Дельфин"
    INDEX 01 00:00:00
FILE "06. Слышишь.wav" WAVE
  TRACK 06 AUDIO
    TITLE "Слышишь"
    PERFORMER "Дельфин"
    INDEX 01 00:00:00
FILE "07. Забудь.wav" WAVE
  TRACK 07 AUDIO
    TITLE "Забудь"
    PERFORMER "Дельфин"
    INDEX 01 00:00:00
FILE "08. Надя.wav" WAVE
  TRACK 08 AUDIO
    TITLE "Надя"
    PERFORMER "Дельфин"
    INDEX 01 00:00:00
FILE "09. Сажа.wav" WAVE
  TRACK 09 AUDIO
    TITLE "Сажа"
    PERFORMER "Дельфин"
    INDEX 01 00:00:00
FILE "10. Дальше.wav" WAVE
  TRACK 10 AUDIO
    TITLE "Дальше"
    PERFORMER "Дельфин"
    INDEX 01 00:00:00
FILE "11. Запись.wav" WAVE
  TRACK 11 AUDIO
    TITLE "Запись"
    PERFORMER "Дельфин"
    INDEX 01 00:00:00
FILE "12. Искра.wav" WAVE
  TRACK 12 AUDIO
    TITLE "Искра"
    PERFORMER "Дельфин"
    INDEX 01 00:00:00
FILE "13. Земля.wav" WAVE
  TRACK 13 AUDIO
    TITLE "Земля"
    PERFORMER "Дельфин"
    INDEX 01 00:00:00


phpBB [media]
   
Торрент: Зарегистрирован [25 дек 2014, 00:03] Rock Скачать торрент Магнет ссылка
Скачать торрент
[ Размер 21.31 КБ / Просмотров 265 ]
Статус:
Проверен
 
.torrent скачан: 2 раз
Размер: 503.47 МБ (527 923 311 байт)
   
 
 
Цитата
  • Похожие торренты
    Ответы
    Просмотры
    Последнее сообщение

Вернуться в Rock

Кто сейчас на конференции

Сейчас эту тему просматривают: нет зарегистрированных пользователей и гости: 1