Gentleman - MTV Unplugged [2014 г., Reggae Roots, Reggae, Blu-ray]

 Статистика раздачи 
Размер: 38.59 ГБ   |  Зарегистрирован: 24 дек 2014, 17:37   |   .torrent скачан: 1 раз
Сидеров: 7  [ 0 байт/сек ]     Личеров: 6  [ 0 байт/сек ]  
  
Аватара пользователя
Главный редактор
Главный редактор
Автор темы
Раздал: 10.09 ТБ
Скачал: 1.76 ТБ
Ратио: 6.147
Сообщения: 3365
Стаж: 6 лет 11 месяцев 27 дней
Откуда: Санкт-Петербург

Gentleman ✶ MTV Unplugged


Оригинальное название: Gentleman ✶ MTV Unplugged
Дата выхода: 2014
Жанр: Reggae Roots, Reggae
Исполнитель: Gentleman
Продолжительность: 01:51:21+00:28:08
Описание: Als erstem Reggaekünstler weltweit wurde Gentleman in diesem Sommer die Ehre zuteil, ein MTV-Unplugged-Konzert zu geben. Sein Heimspiel im Kölner Stadtgarten nutzte der international renommierte Sänger für einen beeindruckenden Streifzug durch die eigene Geschichte, die ihn im steten Wechsel zwischen Jamaika und Köln zu einem der einzigartigsten Künstler dieses Genres gemacht hat.

Eine feine Gästeliste veredelt das mehr als zwei Dutzend Songs umfassende Set, darunter Christopher Martin (»To The Top«), Shaggy (»Warn Dem«), Tanya Stephens (»Another Melody«), Milky Chance (»Homesick«) und Marlon Roudette, mit dem Gentleman dem Mattafix-Classic »Big City Life« neues Leben einhaucht. Das Finale bildet Bob Marleys »Redemption Song« mit Campino und Ky-Mani Marley, dem Sohn der Reggae-Legende.

Spiritueller als auf MTV Unplugged hat man Gentleman vielleicht noch nie live erlebt. The gentle side of Gentleman. Mind-bending stuff
Качество: Blu-ray
Контейнер: BDMV
Видео кодек: H.264
Аудио кодек: DTS, PCM
Видео: MPEG-4 AVC Video / 29996 kbps / 1080i / 25 fps / 16:9 / High Profile 4.1
Аудио 1: Английский: LPCM Audio / 2.0 / 48 kHz / 2304 kbps / 24-bit
Аудио 2: Английский: DTS-HD Master Audio / 5.1 / 48 kHz / 5702 kbps / 24-bit
Релиз: meloman67
01. Intro
02. Superior
03. Changes
04. The Journey
05. Road of Life
06. Intoxication
07. Different Places
08. Send a Prayer
09. It No Pretty
10. Tranquility
11. To the Top feat. Christopher Martin
12. Warn Dem feat. Shaggy
13. New Day Dawn
14. Runaway
15. In My Arms
16. You Remember
17. Heart of Rub-A-Dub
18. Rainy Days feat. Tamika & Martin Jondo
19. Dem Gone
20. Memories
21. Interlude
22. Homesick feat. Milky Chance
23. No Solidarity feat. Ky-Mani Marley
24. Big City Life feat. Marlon Roudette
25. Walk Away
26. Leave Us Alone
27. Another Melody feat. Tanya Stephens
28. Redemption Song feat. Ky-Mani Marley & Campino

Код: Выделить всё
Disc Title:     Gentleman - MTV Unplugged (2014) Blu-ray
Disc Size:      41 435 359 017 bytes
Protection:     AACS
BD-Java:        No
Extras:         50Hz Content
BDInfo:         0.5.8
Notes:
BDINFO HOME:
  Cinema Squid
    http://www.cinemasquid.com/blu-ray/tools/bdinfo
INCLUDES FORUMS REPORT FOR:
  AVS Forum Blu-ray Audio and Video Specifications Thread
    http://www.avsforum.com/avs-vb/showthread.php?t=1155731
********************
PLAYLIST: 00021.MPLS
********************
<--- BEGIN FORUMS PASTE --->

Код:
Total   Video
Title                                                           Codec   Length  Movie Size      Disc Size       Bitrate Bitrate Main Audio Track                          Secondary Audio Track
-----                                                           ------  ------- --------------  --------------  ------- ------- ------------------                        ---------------------
00021.MPLS                                                      AVC     1:51:21 33 434 781 696  41 435 359 017  40,03   30,00   LPCM 2.0 2304Kbps (48kHz/24-bit)          DTS-HD Master 5.1 5702Kbps (48kHz/24-bit)
Код:
DISC INFO:
Disc Title:     Gentleman - MTV Unplugged (2014) Blu-ray
Disc Size:      41 435 359 017 bytes
Protection:     AACS
BD-Java:        No
Extras:         50Hz Content
BDInfo:         0.5.8
PLAYLIST REPORT:
Name:                   00021.MPLS
Length:                 1:51:21.920 (h:m:s.ms)
Size:                   33 434 781 696 bytes
Total Bitrate:          40,03 Mbps
VIDEO:
Codec                   Bitrate             Description
-----                   -------             -----------
MPEG-4 AVC Video        29996 kbps          1080i / 25 fps / 16:9 / High Profile 4.1
AUDIO:
Codec                           Language        Bitrate         Description
-----                           --------        -------         -----------
LPCM Audio                      English         2304 kbps       2.0 / 48 kHz / 2304 kbps / 24-bit
DTS-HD Master Audio             English         5702 kbps       5.1 / 48 kHz / 5702 kbps / 24-bit (DTS Core: 5.1 / 48 kHz / 1509 kbps / 24-bit)
FILES:
Name            Time In         Length          Size            Total Bitrate
----            -------         ------          ----            -------------
00021.M2TS      0:00:00.000     1:51:21.920     33 434 781 696  40 030
CHAPTERS:
Number          Time In         Length          Avg Video Rate  Max 1-Sec Rate  Max 1-Sec Time  Max 5-Sec Rate  Max 5-Sec Time  Max 10Sec Rate  Max 10Sec Time  Avg Frame Size  Max Frame Size  Max Frame Time
------          -------         ------          --------------  --------------  --------------  --------------  --------------  --------------  --------------  --------------  --------------  --------------
1               0:00:00.000     0:01:40.800     31 032 kbps     38 771 kbps     00:01:20.160    37 938 kbps     00:00:54.640    35 978 kbps     00:00:54.640    155 097 bytes   326 914 bytes   00:00:17.280
2               0:01:40.800     0:04:18.400     30 307 kbps     38 772 kbps     00:04:01.680    37 567 kbps     00:05:47.320    36 987 kbps     00:05:42.840    151 536 bytes   320 155 bytes   00:05:25.920
3               0:05:59.200     0:03:10.440     30 195 kbps     38 444 kbps     00:06:18.560    36 218 kbps     00:08:07.120    34 063 kbps     00:08:37.800    150 976 bytes   310 931 bytes   00:08:37.840
4               0:09:09.640     0:03:04.279     29 597 kbps     38 419 kbps     00:10:30.280    36 272 kbps     00:10:27.120    34 534 kbps     00:10:22.080    147 983 bytes   314 394 bytes   00:10:04.160
5               0:12:13.920     0:03:49.480     29 945 kbps     38 623 kbps     00:15:16.200    37 066 kbps     00:12:44.000    35 931 kbps     00:12:24.000    149 726 bytes   325 493 bytes   00:12:46.679
6               0:16:03.400     0:04:00.719     29 817 kbps     38 943 kbps     00:17:44.280    35 755 kbps     00:16:53.640    34 374 kbps     00:17:37.640    149 084 bytes   325 436 bytes   00:17:44.960
7               0:20:04.119     0:03:02.400     29 861 kbps     38 445 kbps     00:20:13.520    36 468 kbps     00:20:10.800    35 412 kbps     00:21:45.080    149 307 bytes   316 361 bytes   00:20:24.280
8               0:23:06.520     0:04:31.920     30 735 kbps     38 618 kbps     00:26:03.080    37 363 kbps     00:25:59.359    36 408 kbps     00:25:54.440    153 675 bytes   344 962 bytes   00:26:06.560
9               0:27:38.440     0:03:32.119     30 196 kbps     38 345 kbps     00:28:12.400    37 077 kbps     00:28:27.480    36 276 kbps     00:28:50.200    150 978 bytes   314 463 bytes   00:30:23.200
10              0:31:10.560     0:03:30.360     29 540 kbps     38 479 kbps     00:34:14.800    35 999 kbps     00:33:10.080    34 434 kbps     00:31:22.120    147 701 bytes   315 090 bytes   00:33:28.080
11              0:34:40.920     0:03:55.760     30 348 kbps     38 802 kbps     00:36:30.080    37 967 kbps     00:37:19.600    37 190 kbps     00:37:14.800    151 741 bytes   330 083 bytes   00:37:21.720
12              0:38:36.680     0:03:24.679     27 974 kbps     38 529 kbps     00:39:17.520    33 590 kbps     00:39:17.439    31 837 kbps     00:39:12.040    139 871 bytes   332 103 bytes   00:39:07.520
13              0:42:01.359     0:02:22.760     30 690 kbps     38 742 kbps     00:42:43.920    37 058 kbps     00:43:43.760    35 779 kbps     00:43:53.359    153 449 bytes   328 144 bytes   00:42:43.960
14              0:44:24.120     0:06:25.880     31 548 kbps     38 860 kbps     00:44:42.720    37 701 kbps     00:46:22.720    36 701 kbps     00:50:10.840    157 742 bytes   328 687 bytes   00:49:03.880
15              0:50:50.000     0:03:32.239     30 393 kbps     38 658 kbps     00:53:25.640    35 085 kbps     00:53:08.520    34 189 kbps     00:52:19.960    151 964 bytes   310 721 bytes   00:51:25.479
16              0:54:22.239     0:04:28.320     28 618 kbps     38 602 kbps     00:56:15.640    34 973 kbps     00:55:51.720    33 569 kbps     00:55:23.120    143 089 bytes   315 730 bytes   00:56:14.800
17              0:58:50.560     0:03:19.199     30 565 kbps     38 523 kbps     01:01:46.439    36 061 kbps     01:01:38.960    34 773 kbps     01:01:38.960    152 827 bytes   309 932 bytes   01:01:39.000
18              1:02:09.760     0:04:30.599     31 511 kbps     38 885 kbps     01:02:28.120    37 388 kbps     01:02:42.439    36 588 kbps     01:02:41.680    157 555 bytes   321 055 bytes   01:02:44.840
19              1:06:40.360     0:04:12.480     31 024 kbps     38 434 kbps     01:07:17.520    37 874 kbps     01:10:35.760    37 201 kbps     01:10:35.360    155 122 bytes   322 015 bytes   01:10:40.400
20              1:10:52.840     0:05:37.119     29 730 kbps     37 007 kbps     01:16:24.760    35 958 kbps     01:13:04.280    35 061 kbps     01:14:01.840    148 651 bytes   310 550 bytes   01:13:02.560
21              1:16:29.960     0:03:05.720     30 478 kbps     38 707 kbps     01:17:52.680    37 060 kbps     01:17:48.760    35 346 kbps     01:16:46.440    152 389 bytes   356 775 bytes   01:19:18.640
22              1:19:35.680     0:04:24.199     29 640 kbps     38 549 kbps     01:19:57.560    36 782 kbps     01:19:56.480    36 310 kbps     01:19:56.440    148 202 bytes   310 239 bytes   01:22:01.480
23              1:23:59.880     0:03:47.079     28 243 kbps     38 570 kbps     01:24:59.840    34 436 kbps     01:27:41.960    32 820 kbps     01:27:36.920    141 215 bytes   310 730 bytes   01:24:59.000
24              1:27:46.960     0:04:08.520     27 889 kbps     37 844 kbps     01:28:11.320    36 181 kbps     01:28:09.520    33 961 kbps     01:28:05.840    139 443 bytes   319 240 bytes   01:29:45.680
25              1:31:55.480     0:03:26.880     30 987 kbps     38 722 kbps     01:33:25.640    36 652 kbps     01:34:00.080    35 143 kbps     01:33:55.520    154 936 bytes   319 532 bytes   01:33:25.680
26              1:35:22.360     0:03:01.639     30 933 kbps     38 650 kbps     01:37:04.320    36 461 kbps     01:37:01.120    34 674 kbps     01:37:59.360    154 665 bytes   309 281 bytes   01:35:35.800
27              1:38:24.000     0:05:18.320     29 778 kbps     38 065 kbps     01:42:53.080    36 036 kbps     01:42:51.360    34 329 kbps     01:40:44.080    148 892 bytes   313 998 bytes   01:42:53.400
28              1:43:42.320     0:07:39.599     29 189 kbps     37 741 kbps     01:47:57.360    37 325 kbps     01:47:55.520    36 016 kbps     01:50:13.680    145 958 bytes   327 120 bytes   01:49:51.640
STREAM DIAGNOSTICS:
File            PID             Type            Codec           Language                Seconds                 Bitrate                 Bytes           Packets
----            ---             ----            -----           --------                --------------          --------------          -------------   -----
00021.M2TS      4113 (0x1011)   0x1B            AVC                                     6681,760                29 997                  25 054 014 198  136 260 565
00021.M2TS      4352 (0x1100)   0x80            LPCM            eng (English)           6681,760                2 310                   1 929 738 496   10 691 072
00021.M2TS      4353 (0x1101)   0x86            DTS-HD MA       eng (English)           6681,760                5 702                   4 762 655 588   26 963 970

<---- END FORUMS PASTE ---->
QUICK SUMMARY:
Disc Title: Gentleman - MTV Unplugged (2014) Blu-ray
Disc Size: 41 435 359 017 bytes
Protection: AACS
BD-Java: No
Playlist: 00021.MPLS
Size: 33 434 781 696 bytes
Length: 1:51:21.920
Total Bitrate: 40,03 Mbps
Video: MPEG-4 AVC Video / 29996 kbps / 1080i / 25 fps / 16:9 / High Profile 4.1
Audio: English / LPCM Audio / 2.0 / 48 kHz / 2304 kbps / 24-bit
Audio: English / DTS-HD Master Audio / 5.1 / 48 kHz / 5702 kbps / 24-bit (DTS Core: 5.1 / 48 kHz / 1509 kbps / 24-bit)
********************
PLAYLIST: 00101.MPLS
********************
<--- BEGIN FORUMS PASTE --->

Код:
Total   Video
Title                                                           Codec   Length  Movie Size      Disc Size       Bitrate Bitrate Main Audio Track                          Secondary Audio Track
-----                                                           ------  ------- --------------  --------------  ------- ------- ------------------                        ---------------------
00101.MPLS                                                      AVC     0:28:08 6 721 572 864   41 435 359 017  31,85   29,99   DTS 2.0 320Kbps (48kHz/24-bit)
Код:
DISC INFO:
Disc Title:     Gentleman - MTV Unplugged (2014) Blu-ray
Disc Size:      41 435 359 017 bytes
Protection:     AACS
BD-Java:        No
Extras:         50Hz Content
BDInfo:         0.5.8
PLAYLIST REPORT:
Name:                   00101.MPLS
Length:                 0:28:08.119 (h:m:s.ms)
Size:                   6 721 572 864 bytes
Total Bitrate:          31,85 Mbps
(*) Indicates included stream hidden by this playlist.
VIDEO:
Codec                   Bitrate             Description
-----                   -------             -----------
MPEG-4 AVC Video        29995 kbps          1080i / 25 fps / 16:9 / High Profile 4.1
AUDIO:
Codec                           Language        Bitrate         Description
-----                           --------        -------         -----------
DTS Audio                       English         320 kbps        2.0 / 48 kHz / 320 kbps / 24-bit
SUBTITLES:
Codec                           Language        Bitrate         Description
-----                           --------        -------         -----------
Presentation Graphics           German          30,500 kbps
* Presentation Graphics         English         14,194 kbps
FILES:
Name            Time In         Length          Size            Total Bitrate
----            -------         ------          ----            -------------
00101.M2TS      0:00:00.000     0:28:08.119     6 721 572 864   31 854
CHAPTERS:
Number          Time In         Length          Avg Video Rate  Max 1-Sec Rate  Max 1-Sec Time  Max 5-Sec Rate  Max 5-Sec Time  Max 10Sec Rate  Max 10Sec Time  Avg Frame Size  Max Frame Size  Max Frame Time
------          -------         ------          --------------  --------------  --------------  --------------  --------------  --------------  --------------  --------------  --------------  --------------
1               0:00:00.000     0:28:08.119     29 995 kbps     40 905 kbps     00:05:56.640    38 282 kbps     00:12:58.559    38 048 kbps     00:14:13.240    149 974 bytes   413 535 bytes   00:02:12.960
STREAM DIAGNOSTICS:
File            PID             Type            Codec           Language                Seconds                 Bitrate                 Bytes           Packets
----            ---             ----            -----           --------                --------------          --------------          -------------   -----
00101.M2TS      4113 (0x1011)   0x1B            AVC                                     1687,960                29 998                  6 329 339 643   34 423 042
00101.M2TS      4352 (0x1100)   0x82            DTS             eng (English)           1687,960                318                     67 103 088      474 786
00101.M2TS      4608 (0x1200)   0x90            PGS             deu (German)            1687,960                31                      6 435 907       36 778
00101.M2TS      4609 (0x1201)   0x90            PGS             eng (English)           1687,960                14                      2 995 140       17 031

<---- END FORUMS PASTE ---->
QUICK SUMMARY:
Disc Title: Gentleman - MTV Unplugged (2014) Blu-ray
Disc Size: 41 435 359 017 bytes
Protection: AACS
BD-Java: No
Playlist: 00101.MPLS
Size: 6 721 572 864 bytes
Length: 0:28:08.119
Total Bitrate: 31,85 Mbps
Video: MPEG-4 AVC Video / 29995 kbps / 1080i / 25 fps / 16:9 / High Profile 4.1
Audio: English / DTS Audio / 2.0 / 48 kHz / 320 kbps / 24-bit
Subtitle: German / 30,500 kbps
* Subtitle: English / 14,194 kbps
********************
PLAYLIST: 00102.MPLS
********************
<--- BEGIN FORUMS PASTE --->

Код:
Total   Video
Title                                                           Codec   Length  Movie Size      Disc Size       Bitrate Bitrate Main Audio Track                          Secondary Audio Track
-----                                                           ------  ------- --------------  --------------  ------- ------- ------------------                        ---------------------
00102.MPLS                                                      AVC     0:28:08 6 721 572 864   41 435 359 017  31,85   29,99   DTS 2.0 320Kbps (48kHz/24-bit)
Код:
DISC INFO:
Disc Title:     Gentleman - MTV Unplugged (2014) Blu-ray
Disc Size:      41 435 359 017 bytes
Protection:     AACS
BD-Java:        No
Extras:         50Hz Content
BDInfo:         0.5.8
PLAYLIST REPORT:
Name:                   00102.MPLS
Length:                 0:28:08.119 (h:m:s.ms)
Size:                   6 721 572 864 bytes
Total Bitrate:          31,85 Mbps
(*) Indicates included stream hidden by this playlist.
VIDEO:
Codec                   Bitrate             Description
-----                   -------             -----------
MPEG-4 AVC Video        29995 kbps          1080i / 25 fps / 16:9 / High Profile 4.1
AUDIO:
Codec                           Language        Bitrate         Description
-----                           --------        -------         -----------
DTS Audio                       English         320 kbps        2.0 / 48 kHz / 320 kbps / 24-bit
SUBTITLES:
Codec                           Language        Bitrate         Description
-----                           --------        -------         -----------
* Presentation Graphics         German          30,500 kbps
Presentation Graphics           English         14,194 kbps
FILES:
Name            Time In         Length          Size            Total Bitrate
----            -------         ------          ----            -------------
00101.M2TS      0:00:00.000     0:28:08.119     6 721 572 864   31 854
CHAPTERS:
Number          Time In         Length          Avg Video Rate  Max 1-Sec Rate  Max 1-Sec Time  Max 5-Sec Rate  Max 5-Sec Time  Max 10Sec Rate  Max 10Sec Time  Avg Frame Size  Max Frame Size  Max Frame Time
------          -------         ------          --------------  --------------  --------------  --------------  --------------  --------------  --------------  --------------  --------------  --------------
1               0:00:00.000     0:28:08.119     29 995 kbps     40 905 kbps     00:05:56.640    38 282 kbps     00:12:58.559    38 048 kbps     00:14:13.240    149 974 bytes   413 535 bytes   00:02:12.960
STREAM DIAGNOSTICS:
File            PID             Type            Codec           Language                Seconds                 Bitrate                 Bytes           Packets
----            ---             ----            -----           --------                --------------          --------------          -------------   -----
00101.M2TS      4113 (0x1011)   0x1B            AVC                                     1687,960                29 998                  6 329 339 643   34 423 042
00101.M2TS      4352 (0x1100)   0x82            DTS             eng (English)           1687,960                318                     67 103 088      474 786
00101.M2TS      4608 (0x1200)   0x90            PGS             deu (German)            1687,960                31                      6 435 907       36 778
00101.M2TS      4609 (0x1201)   0x90            PGS             eng (English)           1687,960                14                      2 995 140       17 031

<---- END FORUMS PASTE ---->
QUICK SUMMARY:
Disc Title: Gentleman - MTV Unplugged (2014) Blu-ray
Disc Size: 41 435 359 017 bytes
Protection: AACS
BD-Java: No
Playlist: 00102.MPLS
Size: 6 721 572 864 bytes
Length: 0:28:08.119
Total Bitrate: 31,85 Mbps
Video: MPEG-4 AVC Video / 29995 kbps / 1080i / 25 fps / 16:9 / High Profile 4.1
Audio: English / DTS Audio / 2.0 / 48 kHz / 320 kbps / 24-bit
* Subtitle: German / 30,500 kbps
Subtitle: English / 14,194 kbps
********************
PLAYLIST: 00103.MPLS
********************
<--- BEGIN FORUMS PASTE --->

Код:
Total   Video
Title                                                           Codec   Length  Movie Size      Disc Size       Bitrate Bitrate Main Audio Track                          Secondary Audio Track
-----                                                           ------  ------- --------------  --------------  ------- ------- ------------------                        ---------------------
00103.MPLS                                                      AVC     0:03:23 809 822 208     41 435 359 017  31,81   30,00   DTS 2.0 320Kbps (48kHz/24-bit)
Код:
DISC INFO:
Disc Title:     Gentleman - MTV Unplugged (2014) Blu-ray
Disc Size:      41 435 359 017 bytes
Protection:     AACS
BD-Java:        No
Extras:         50Hz Content
BDInfo:         0.5.8
PLAYLIST REPORT:
Name:                   00103.MPLS
Length:                 0:03:23.680 (h:m:s.ms)
Size:                   809 822 208 bytes
Total Bitrate:          31,81 Mbps
VIDEO:
Codec                   Bitrate             Description
-----                   -------             -----------
MPEG-4 AVC Video        29998 kbps          1080i / 25 fps / 16:9 / High Profile 4.1
AUDIO:
Codec                           Language        Bitrate         Description
-----                           --------        -------         -----------
DTS Audio                       English         320 kbps        2.0 / 48 kHz / 320 kbps / 24-bit
FILES:
Name            Time In         Length          Size            Total Bitrate
----            -------         ------          ----            -------------
00103.M2TS      0:00:00.000     0:03:23.680     809 822 208     31 808
CHAPTERS:
Number          Time In         Length          Avg Video Rate  Max 1-Sec Rate  Max 1-Sec Time  Max 5-Sec Rate  Max 5-Sec Time  Max 10Sec Rate  Max 10Sec Time  Avg Frame Size  Max Frame Size  Max Frame Time
------          -------         ------          --------------  --------------  --------------  --------------  --------------  --------------  --------------  --------------  --------------  --------------
1               0:00:00.000     0:03:23.680     29 998 kbps     39 545 kbps     00:00:15.760    38 178 kbps     00:01:58.760    37 849 kbps     00:01:53.840    149 988 bytes   506 126 bytes   00:01:21.040
STREAM DIAGNOSTICS:
File            PID             Type            Codec           Language                Seconds                 Bitrate                 Bytes           Packets
----            ---             ----            -----           --------                --------------          --------------          -------------   -----
00103.M2TS      4113 (0x1011)   0x1B            AVC                                     203,520                 30 021                  763 737 802     4 153 707
00103.M2TS      4352 (0x1100)   0x82            DTS             eng (English)           203,520                 318                     8 095 008       57 276

<---- END FORUMS PASTE ---->
QUICK SUMMARY:
Disc Title: Gentleman - MTV Unplugged (2014) Blu-ray
Disc Size: 41 435 359 017 bytes
Protection: AACS
BD-Java: No
Playlist: 00103.MPLS
Size: 809 822 208 bytes
Length: 0:03:23.680
Total Bitrate: 31,81 Mbps
Video: MPEG-4 AVC Video / 29998 kbps / 1080i / 25 fps / 16:9 / High Profile 4.1
Audio: English / DTS Audio / 2.0 / 48 kHz / 320 kbps / 24-bit


phpBB [media]


   
Торрент: Зарегистрирован [24 дек 2014, 17:37] Скачать торрент Магнет ссылка
Скачать торрент
[ Размер 100.32 КБ / Просмотров 262 ]
Статус:
Проверен
 
.torrent скачан: 1 раз
Размер: 38.59 ГБ (41 435 256 293 байт)
   
 
 
Цитата
  • Похожие торренты
    Ответы
    Просмотры
    Последнее сообщение

Вернуться в New Music video (HD/DVD)

Кто сейчас на конференции

Сейчас эту тему просматривают: нет зарегистрированных пользователей и гости: 1