Discovery: Инородные тела / Body Invaders (2014) HDTVRip (Серия 4)

 Статистика раздачи 
Размер: 579.66 МБ   |  Зарегистрирован: 24 ноя 2014, 23:50   |   .torrent скачан: 2 раз
Сидеров: 6  [ 0 байт/сек ]     Личеров: 1  [ 0 байт/сек ]  
  
Аватара пользователя
Администратор
Администратор
Автор темы
Раздал: 24.47 ТБ
Скачал: 388.83 ГБ
Ратио: 145.334
Сообщения: 5358
Стаж: 6 лет 11 месяцев 14 дней
Откуда: Lithuania

Discovery: Инородные тела / Body Invaders


Русское название: Инородные тела
Оригинальное название: Body Invaders
Год выпуска: 2014
Продолжительность: 00:43:57
Жанр: Документальный
Режиссер: Джил Камбебатч, Крис Роув, Верни Шейтвер
Выпущено: США, Discovery Networks International
Озвучено: студией "VSI" Москва
Перевод: Одноголосый закадровый



Описание:
Рассказ о спортсменах, которые чудом выжили в несчастных случаях с острыми предметами. Кто сказал, что спорт — это здоровье?


Качество HD: HDTVRip
Формат аудио: AC3
Формат видео: XviD
Видео: 720 x 400, ~1450 Кбит/сек
Аудио: AC-3, 6ch., 384 Кбит/сек
Код: Выделить всё
Формат : AVI
Формат/Информация : Audio Video Interleave
Размер файла : 580 Мбайт
Продолжительность : 43 м.
Общий поток : 1843 Кбит/сек
Программа кодирования : VirtualDubMod 1.5.10.3 | www.virtualdub-fr.org || (build 2550/release)
Библиотека кодирования : VirtualDubMod build 2550/release

Видео
Идентификатор : 0
Формат : MPEG-4 Visual
Профиль формата : Advanced [email protected]
Параметр BVOP формата : 1
Параметр QPel формата : Нет
Параметр GMC формата : Без точки перехода
Параметр матрицы формата : Default (H.263)
Идентификатор кодека : XVID
Идентификатор кодека/Подсказка : XviD
Продолжительность : 43 м.
Битрейт : 1450 Кбит/сек
Ширина : 720 пикселей
Высота : 400 пикселей
Соотношение сторон : 16:9
Частота кадров : 25,000 кадров/сек
Цветовое пространство : YUV
Субдискретизация насыщенности : 4:2:0
Битовая глубина : 8 бит
Тип развёртки : Прогрессивная
Метод сжатия : С потерями
Бит/(Пиксели*Кадры) : 0.201
Размер потока : 456 Мбайт (79%)
Библиотека кодирования : XviD 73

Аудио
Идентификатор : 1
Формат : AC-3
Формат/Информация : Audio Coding 3
Расширение режима : CM (complete main)
Параметр Endianness формата : Big
Идентификатор кодека : 2000
Продолжительность : 43 м.
Вид битрейта : Постоянный
Битрейт : 384 Кбит/сек
Каналы : 6 каналов
Расположение каналов : Front: L C R, Side: L R, LFE
Частота : 48,0 КГц
Битовая глубина : 16 бит
Метод сжатия : С потерями
Размер потока : 121 Мбайт (21%)
Выравнивание : Разделение по промежуткам
Продолжительность промежутка : 40 мс. (1,00 видеокадр)
Время предзагрузки промежутка : 500 мс.


   
Торрент: Зарегистрирован [24 ноя 2014, 23:50] Скачать торрент Магнет ссылка
Скачать торрент
[ Размер 12.08 КБ / Просмотров 276 ]
Статус:
Проверен
 
.torrent скачан: 2 раз
Размер: 579.66 МБ (607 815 680 байт)
   
 
 
Цитата

Вернуться в Discovery

Кто сейчас на конференции

Сейчас эту тему просматривают: нет зарегистрированных пользователей и гости: 1