Невиданные Гавайи. Тайны морских глубин / Wild Hawaii. Secrets of the Deep (2013) HDTVRip [H.264/720p]

 Статистика раздачи 
Размер: 2.03 ГБ   |  Зарегистрирован: 24 ноя 2014, 23:35   |   .torrent скачан: 6 раз
Сидеров: 22  [ 0 байт/сек ]     Личеров: 5  [ 0 байт/сек ]  
  
Аватара пользователя
Администратор
Администратор
Автор темы
Раздал: 24.47 ТБ
Скачал: 388.83 ГБ
Ратио: 145.335
Сообщения: 6031
Стаж: 7 лет 2 месяца 13 дней
Откуда: Lithuania

Невиданные Гавайи. Тайны морских глубин / Wild Hawaii. Secrets of the Deep



Русское название: Невиданные Гавайи. Тайны морских глубин
Оригинальное название: Wild Hawaii. Secrets of the Deep
Год выхода: 2013
Режиссер: -Карен Гринфилд / Pangolin Pictures,
Страна производства: США
Продолжительность: 00:43:55
Продюсер: Карл Холл, Мик Кацоровски, Стив Николлс
Премьера в мире: 13 ноября 2012
Жанр: документальный
Перевод: Одноголосый закадровый (профессиональный)
Субтитры: отсутствуют


Описание: Гавайи - рай на земле, и не только на суше. Настоящий эдемский сад кроется под волнами. Там, где заканчивается берег, начинается повествование о диких Гавайах. Одна из тайн этих островов надежно скрыта под водой. Может показаться, что этот рай предназначен для ограниченного числа избранных, однако эти воды открыты для самых разнообразных существ. Гавайи притягивают жизнь на свои мелководья, на отмели и в глубины. Чарующая красота этого рая земного завораживает своим разнообразием.

Рейтинг IMDB:
Рейтинг Kinopoisk:


Контейнер: MKV
Качество HD: HDTVRip 720p
Формат аудио: AC3
Формат видео: H.264
Видео: 1280 x 720, ~6434 Кбит/с
Аудио: AC3, 2 ch, 192 Кбит/с
Код: Выделить всё
Общее
Уникальный идентификатор : 197811631399738374136770447001313182187 (0x94D12269BF754FC0AECBFC54DC6981EB)
Полное имя : D:\Релизы\Wild.Hawaii.Secrets.of.the.Deep.2013.HDTVRip.720p.mkv
Формат : Matroska
Версия формата : Version 2
Размер файла : 2,03 Гбайт
Продолжительность : 43 м.
Общий поток : 6629 Кбит/сек
Дата кодирования : UTC 2014-11-23 06:11:31
Программа кодирования : mkvmerge v6.1.0 ('Old Devil') built on Mar 4 2013 09:10:42
Библиотека кодирования : libebml v1.3.0 + libmatroska v1.4.0

Видео
Идентификатор : 1
Формат : AVC
Формат/Информация : Advanced Video Codec
Профиль формата : [email protected]
Параметр CABAC формата : Да
Параметр ReFrames формата : 8 кадров
Идентификатор кодека : V_MPEG4/ISO/AVC
Продолжительность : 43 м.
Битрейт : 6434 Кбит/сек
Ширина : 1280 пикселей
Высота : 720 пикселей
Соотношение сторон : 16:9
Режим частоты кадров : Постоянный
Частота кадров : 25,000 кадров/сек
Цветовое пространство : YUV
Субдискретизация насыщенности : 4:2:0
Битовая глубина : 8 бит
Тип развёртки : Прогрессивная
Бит/(Пиксели*Кадры) : 0.279
Размер потока : 1,93 Гбайт (95%)
Библиотека кодирования : x264 core 130 r2273 b3065e6
Настройки программы : cabac=1 / ref=8 / deblock=1:-2:-2 / analyse=0x3:0x113 / me=umh / subme=9 / psy=1 / psy_rd=1.00:0.20 / mixed_ref=1 / me_range=32 / chroma_me=1 / trellis=2 / 8x8dct=1 / cqm=0 / deadzone=21,11 / fast_pskip=0 / chroma_qp_offset=-3 / threads=6 / lookahead_threads=1 / sliced_threads=0 / nr=0 / decimate=1 / interlaced=0 / bluray_compat=0 / constrained_intra=0 / bframes=7 / b_pyramid=2 / b_adapt=2 / b_bias=0 / direct=3 / weightb=1 / open_gop=0 / weightp=2 / keyint=15 / keyint_min=1 / scenecut=40 / intra_refresh=0 / rc_lookahead=20 / rc=2pass / mbtree=1 / bitrate=6434 / ratetol=1.0 / qcomp=0.60 / qpmin=0 / qpmax=69 / qpstep=4 / cplxblur=20.0 / qblur=0.5 / vbv_maxrate=17500 / vbv_bufsize=14000 / nal_hrd=none / ip_ratio=1.40 / aq=1:1.00
Default : Да
Forced : Нет

Аудио
Идентификатор : 2
Формат : AC-3
Формат/Информация : Audio Coding 3
Расширение режима : CM (complete main)
Параметр Endianness формата : Big
Идентификатор кодека : A_AC3
Продолжительность : 43 м.
Вид битрейта : Постоянный
Битрейт : 192 Кбит/сек
Каналы : 2 канала
Расположение каналов : Front: L R
Частота : 48,0 КГц
Битовая глубина : 16 бит
Метод сжатия : С потерями
Размер потока : 60,3 Мбайт (3%)
Default : Да
Forced : Нет


   
Торрент: Зарегистрирован [24 ноя 2014, 23:35] Скачать торрент Магнет ссылка
Скачать торрент
[ Размер 10.99 КБ / Просмотров 315 ]
Статус:
Проверен
 
.torrent скачан: 6 раз
Размер: 2.03 ГБ (2 183 780 026 байт)
   
 
 
Цитата
  • Похожие торренты
    Ответы
    Просмотры
    Последнее сообщение

Вернуться в National Geographic

Кто сейчас на конференции

Сейчас эту тему просматривают: нет зарегистрированных пользователей и гости: 1