Rawlins Cross - Reel 'n' Roll (1993) [FLAC|Lossless|tracks + .cue] <Rock, Folk, World & Country>

 Статистика раздачи 
Размер: 356.8 МБ   |  Зарегистрирован: 16 окт 2018, 17:59   |   .torrent скачан: 1 раз
Сидеров: 4  [ 0 байт/сек ]     Личеров: 3  [ 0 байт/сек ]  
  
Аватара пользователя
 
Раздал: 3.36 ТБ
Скачал: 63.98 ГБ
Ратио: 53.828
Сообщения: 197205
Стаж: 1 год 7 месяцев 29 дней

Rawlins Cross - Reel 'n' Roll (1993)

Жанр: Rock, Folk, World & Country
Издание: Ground Swell - CD 10104
Продолжительность: 00:46:29

Кодек: FLAC
Битрейт: Lossless
Тип рипа: tracks + .cue

Треклист:
01. Reel 'n' Roll (5:01)
02. Don't You Be the One (3:51)
03. It'll Have to Wait (3:27)
04. Long Night (5:15)
05. The Wedding Gift (4:03)
06. Pedestrian Again (2:50)
07. Mystery Tonight (4:44)
08. Dance Hall (3:09)
09. Ghost of Love (3:35)
10. Turn of the Wheel (2:41)
11. Colleen (3:54)
12. MacPherson's Lament (4:00)

Код: Выделить всё
Exact Audio Copy V1.3 from 2. September 2016

EAC extraction logfile from 10. March 2018, 10:24

Rawlins Cross / Reel 'n' Roll

Used drive  : ASUS    DRW-24B1ST   j   Adapter: 1  ID: 0

Read mode               : Secure
Utilize accurate stream : Yes
Defeat audio cache      : Yes
Make use of C2 pointers : No

Read offset correction                      : 6
Overread into Lead-In and Lead-Out          : No
Fill up missing offset samples with silence : Yes
Delete leading and trailing silent blocks   : No
Null samples used in CRC calculations       : Yes
Used interface                              : Native Win32 interface for Win NT & 2000
Gap handling                                : Appended to previous track

Used output format              : User Defined Encoder
Selected bitrate                : 1024 kBit/s
Quality                         : High
Add ID3 tag                     : No
Command line compressor         : C:\Program Files (x86)\flac-1.3.2-win\win64\flac.exe
Additional command line options : -8 -e -p -V -T "ARTIST=%artist%" -T "TITLE=%title%" -T "ALBUM=%albumtitle%" -T "DATE=%year%" -T "TRACKNUMBER=%tracknr%" -T "GENRE=%genre%" -T "PERFORMER=%albuminterpret%" -T "COMPOSER=%composer%" %haslyrics%--tag-from-file=LYRICS="%lyricsfile%"%haslyrics% -T "ALBUMARTIST=%albumartist%" -T "DISCNUMBER=%cdnumber%" -T "TOTALDISCS=%totalcds%" -T "TOTALTRACKS=%numtracks%" -T "COMMENT=%comment%" %source% -o %dest%

TOC of the extracted CD

     Track |   Start  |  Length  | Start sector | End sector
    ---------------------------------------------------------
        1  |  0:00.00 |  5:00.70 |         0    |    22569
        2  |  5:00.70 |  3:51.02 |     22570    |    39896
        3  |  8:51.72 |  3:26.48 |     39897    |    55394
        4  | 12:18.45 |  5:14.65 |     55395    |    79009
        5  | 17:33.35 |  4:02.55 |     79010    |    97214
        6  | 21:36.15 |  2:49.60 |     97215    |   109949
        7  | 24:26.00 |  4:44.10 |    109950    |   131259
        8  | 29:10.10 |  3:08.50 |    131260    |   145409
        9  | 32:18.60 |  3:35.17 |    145410    |   161551
       10  | 35:54.02 |  2:41.35 |    161552    |   173661
       11  | 38:35.37 |  3:54.00 |    173662    |   191211
       12  | 42:29.37 |  3:59.68 |    191212    |   209204

Track  1

     Filename C:\FLAC\Rawlins Cross -  Reel 'n' Roll (1993) [FLAC] {Ground Swell  CD 10104  CD}\01 - Reel 'n' Roll.wav

     Pre-gap length  0:00:02.00

     Peak level 99.0 %
     Extraction speed 3.3 X
     Track quality 100.0 %
     Test CRC F090DF6B
     Copy CRC F090DF6B
     Accurately ripped (confidence 2)  [5FCD0304]  (AR v2)
     Copy OK

Track  2

     Filename C:\FLAC\Rawlins Cross -  Reel 'n' Roll (1993) [FLAC] {Ground Swell  CD 10104  CD}\02 - Don't You Be the One.wav

     Peak level 99.0 %
     Extraction speed 2.9 X
     Track quality 100.0 %
     Test CRC 5D93612A
     Copy CRC 5D93612A
     Accurately ripped (confidence 2)  [79AAD90C]  (AR v2)
     Copy OK

Track  3

     Filename C:\FLAC\Rawlins Cross -  Reel 'n' Roll (1993) [FLAC] {Ground Swell  CD 10104  CD}\03 - It'll Have to Wait.wav

     Peak level 99.0 %
     Extraction speed 3.0 X
     Track quality 100.0 %
     Test CRC A60EBDDF
     Copy CRC A60EBDDF
     Accurately ripped (confidence 2)  [654C7EBC]  (AR v2)
     Copy OK

Track  4

     Filename C:\FLAC\Rawlins Cross -  Reel 'n' Roll (1993) [FLAC] {Ground Swell  CD 10104  CD}\04 - Long Night.wav

     Peak level 99.0 %
     Extraction speed 3.8 X
     Track quality 100.0 %
     Test CRC 684A63FB
     Copy CRC 684A63FB
     Accurately ripped (confidence 2)  [FDEE5A5E]  (AR v2)
     Copy OK

Track  5

     Filename C:\FLAC\Rawlins Cross -  Reel 'n' Roll (1993) [FLAC] {Ground Swell  CD 10104  CD}\05 - The Wedding Gift.wav

     Peak level 90.4 %
     Extraction speed 3.5 X
     Track quality 100.0 %
     Test CRC 1FC2FA51
     Copy CRC 1FC2FA51
     Accurately ripped (confidence 2)  [30FCC91C]  (AR v2)
     Copy OK

Track  6

     Filename C:\FLAC\Rawlins Cross -  Reel 'n' Roll (1993) [FLAC] {Ground Swell  CD 10104  CD}\06 - Pedestrian Again.wav

     Peak level 99.0 %
     Extraction speed 3.0 X
     Track quality 100.0 %
     Test CRC 4CB684B0
     Copy CRC 4CB684B0
     Accurately ripped (confidence 2)  [88348604]  (AR v2)
     Copy OK

Track  7

     Filename C:\FLAC\Rawlins Cross -  Reel 'n' Roll (1993) [FLAC] {Ground Swell  CD 10104  CD}\07 - Mystery Tonight.wav

     Peak level 99.0 %
     Extraction speed 4.0 X
     Track quality 100.0 %
     Test CRC 30F5BCA6
     Copy CRC 30F5BCA6
     Accurately ripped (confidence 2)  [F3736EA6]  (AR v2)
     Copy OK

Track  8

     Filename C:\FLAC\Rawlins Cross -  Reel 'n' Roll (1993) [FLAC] {Ground Swell  CD 10104  CD}\08 - Dance Hall.wav

     Peak level 99.0 %
     Extraction speed 3.4 X
     Track quality 100.0 %
     Test CRC 282B8661
     Copy CRC 282B8661
     Accurately ripped (confidence 2)  [289B4F26]  (AR v2)
     Copy OK

Track  9

     Filename C:\FLAC\Rawlins Cross -  Reel 'n' Roll (1993) [FLAC] {Ground Swell  CD 10104  CD}\09 - Ghost of Love.wav

     Peak level 98.0 %
     Extraction speed 3.6 X
     Track quality 100.0 %
     Test CRC C94588B9
     Copy CRC C94588B9
     Accurately ripped (confidence 2)  [10A9143E]  (AR v2)
     Copy OK

Track 10

     Filename C:\FLAC\Rawlins Cross -  Reel 'n' Roll (1993) [FLAC] {Ground Swell  CD 10104  CD}\10 - Turn of the Wheel.wav

     Peak level 99.0 %
     Extraction speed 3.2 X
     Track quality 100.0 %
     Test CRC F9E1C367
     Copy CRC F9E1C367
     Accurately ripped (confidence 2)  [3BC0EC01]  (AR v2)
     Copy OK

Track 11

     Filename C:\FLAC\Rawlins Cross -  Reel 'n' Roll (1993) [FLAC] {Ground Swell  CD 10104  CD}\11 - Colleen.wav

     Peak level 99.0 %
     Extraction speed 3.9 X
     Track quality 100.0 %
     Test CRC BF3C9ACD
     Copy CRC BF3C9ACD
     Accurately ripped (confidence 2)  [2FB8E3DD]  (AR v2)
     Copy OK

Track 12

     Filename C:\FLAC\Rawlins Cross -  Reel 'n' Roll (1993) [FLAC] {Ground Swell  CD 10104  CD}\12 - MacPherson's Lament.wav

     Peak level 99.0 %
     Extraction speed 4.0 X
     Track quality 100.0 %
     Test CRC A5AAC22B
     Copy CRC A5AAC22B
     Accurately ripped (confidence 2)  [9A32565B]  (AR v2)
     Copy OK

All tracks accurately ripped

No errors occurred

End of status report

---- CUETools DB Plugin V2.1.6

[CTDB TOCID: oYOmYO8mXIFRPp2wzmQP2CyRSww-] found
Submit result: oYOmYO8mXIFRPp2wzmQP2CyRSww- has been confirmed
Track | CTDB Status
  1   | (12/12) Accurately ripped
  2   | (12/12) Accurately ripped
  3   | (12/12) Accurately ripped
  4   | (12/12) Accurately ripped
  5   | (12/12) Accurately ripped
  6   | (12/12) Accurately ripped
  7   | (12/12) Accurately ripped
  8   | (12/12) Accurately ripped
  9   | (12/12) Accurately ripped
 10   | (12/12) Accurately ripped
 11   | (12/12) Accurately ripped
 12   | (12/12) Accurately ripped

==== Log checksum 1FD56A45EFC16F188561929FC265E0EC907456EE8E93A9C2244986D6155CE32A ====
Код: Выделить всё
REM DATE 1993
REM DISCID 940AE50C
REM COMMENT "ExactAudioCopy v1.3"
PERFORMER "Rawlins Cross"
TITLE "Reel 'n' Roll"
REM COMPOSER ""
FILE "01 - Reel 'n' Roll.wav" WAVE
  TRACK 01 AUDIO
    TITLE "Reel 'n' Roll"
    PERFORMER "Rawlins Cross"
    REM COMPOSER "Dave Panting"
    ISRC CAW119300869
    INDEX 01 00:00:00
FILE "02 - Don't You Be the One.wav" WAVE
  TRACK 02 AUDIO
    TITLE "Don't You Be the One"
    PERFORMER "Rawlins Cross"
    REM COMPOSER "Dave Panting"
    ISRC CAW119300870
    INDEX 01 00:00:00
FILE "03 - It'll Have to Wait.wav" WAVE
  TRACK 03 AUDIO
    TITLE "It'll Have to Wait"
    PERFORMER "Rawlins Cross"
    REM COMPOSER "Geoff Panting"
    ISRC CAW119300871
    INDEX 01 00:00:00
FILE "04 - Long Night.wav" WAVE
  TRACK 04 AUDIO
    TITLE "Long Night"
    PERFORMER "Rawlins Cross"
    REM COMPOSER "Dave Panting"
    ISRC CAW119300872
    INDEX 01 00:00:00
FILE "05 - The Wedding Gift.wav" WAVE
  TRACK 05 AUDIO
    TITLE "The Wedding Gift"
    PERFORMER "Rawlins Cross"
    REM COMPOSER "Instrumental"
    ISRC CAW119300873
    INDEX 01 00:00:00
FILE "06 - Pedestrian Again.wav" WAVE
  TRACK 06 AUDIO
    TITLE "Pedestrian Again"
    PERFORMER "Rawlins Cross"
    REM COMPOSER "Geoff Panting"
    ISRC CAW119300874
    INDEX 01 00:00:00
FILE "07 - Mystery Tonight.wav" WAVE
  TRACK 07 AUDIO
    TITLE "Mystery Tonight"
    PERFORMER "Rawlins Cross"
    REM COMPOSER "Geoff Panting"
    ISRC CAW119300875
    INDEX 01 00:00:00
FILE "08 - Dance Hall.wav" WAVE
  TRACK 08 AUDIO
    TITLE "Dance Hall"
    PERFORMER "Rawlins Cross"
    REM COMPOSER "Dave Panting"
    ISRC CAW119300876
    INDEX 01 00:00:00
FILE "09 - Ghost of Love.wav" WAVE
  TRACK 09 AUDIO
    TITLE "Ghost of Love"
    PERFORMER "Rawlins Cross"
    REM COMPOSER "Dave Panting"
    ISRC CAW119300877
    INDEX 01 00:00:00
FILE "10 - Turn of the Wheel.wav" WAVE
  TRACK 10 AUDIO
    TITLE "Turn of the Wheel"
    PERFORMER "Rawlins Cross"
    REM COMPOSER "Geoff Panting"
    ISRC CAW119300878
    INDEX 01 00:00:00
FILE "11 - Colleen.wav" WAVE
  TRACK 11 AUDIO
    TITLE "Colleen"
    PERFORMER "Rawlins Cross"
    REM COMPOSER "Dave Panting"
    ISRC CAW119300879
    INDEX 01 00:00:00
FILE "12 - MacPherson's Lament.wav" WAVE
  TRACK 12 AUDIO
    TITLE "MacPherson's Lament"
    PERFORMER "Rawlins Cross"
    REM COMPOSER "Traditional"
    ISRC CAW119300880
    INDEX 01 00:00:00
Код: Выделить всё
-----------------------

DON'T MODIFY THIS FILE

-----------------------

PERFORMER: auCDtect Task Manager, ver. 1.6.0 RC1 build 1.6.0.1
Copyright (c) 2008-2010 y-soft. All rights reserved
[url=http://y-soft.org]http://y-soft.org[/url]

ANALYZER: auCDtect: CD records authenticity detector, version 0.8.2
Copyright (c) 2004 Oleg Berngardt. All rights reserved.
Copyright (c) 2004 Alexander Djourik. All rights reserved.

FILE: 03 - It'll Have to Wait.flac
  Size: 25908312 Hash: C9AAD4EE5593A7D7B1A0917A0CAA9A59 Accuracy: -m0
  Conclusion: CDDA 100%
  Signature: 71890BFE3CF753C5BE90DD547E29428E57396464
FILE: 02 - Don't You Be the One.flac
  Size: 26576227 Hash: 417B73B3934616F3C470F2481F23127C Accuracy: -m0
  Conclusion: CDDA 100%
  Signature: 99624077FD81335E599C15A88CE001B8490EA95B
FILE: 01 - Reel 'n' Roll.flac
  Size: 37504859 Hash: E8C087020A3BFB46EE152162DB05875E Accuracy: -m0
  Conclusion: CDDA 100%
  Signature: D2945D9F59403ABDDCF7EE9F5097F81EA790200C
FILE: 12 - MacPherson's Lament.flac
  Size: 25466985 Hash: 752CD65C6E532E77D734771BCA402883 Accuracy: -m0
  Conclusion: CDDA 76%
  Signature: 21E91CB1E475264A6E80448C62476B142C7D5691
FILE: 11 - Colleen.flac
  Size: 28937075 Hash: 50B1DB3FFEA96B35133F290C8EA1AC2A Accuracy: -m0
  Conclusion: CDDA 100%
  Signature: C77FFDD12610CEBC691F2F4B3B3209D74971554B
FILE: 10 - Turn of the Wheel.flac
  Size: 19582766 Hash: 8A42166A2E182D333E29568E5C9D4880 Accuracy: -m0
  Conclusion: CDDA 100%
  Signature: 8D9B7B17D5A5EA1BFD5C79B34A3F4D1D4A8203FF
FILE: 09 - Ghost of Love.flac
  Size: 23500735 Hash: AF69F6C0FF8F5CC6727AF590ABB85FF1 Accuracy: -m0
  Conclusion: ???
  Signature: DDC8FED5E2F74D9196366336FCC8C039C4DEB37D
FILE: 08 - Dance Hall.flac
  Size: 23395038 Hash: B90E3AEB75D2CAF6371F8E941BC6E364 Accuracy: -m0
  Conclusion: CDDA 100%
  Signature: DED5EEFF79952A9AC92DDB459B7A534D0ADE335D
FILE: 07 - Mystery Tonight.flac
  Size: 33296805 Hash: 20A6589DE6B81533B0359D1B59D61F03 Accuracy: -m0
  Conclusion: CDDA 100%
  Signature: D8861986B7FF208935B6C5F24A78A4C1D0F131B9
FILE: 06 - Pedestrian Again.flac
  Size: 19918450 Hash: C8AEF8167207DCDAF2EB41019DE1C31F Accuracy: -m0
  Conclusion: CDDA 42%
  Signature: DBB65C7C772BC6AFB744A1528CB4305C23A01859
FILE: 05 - The Wedding Gift.flac
  Size: 23780720 Hash: 787495F6F2FF4B4A46EDB17DDF706000 Accuracy: -m0
  Conclusion: CDDA 62%
  Signature: B095BBA47819340FF949EE574C851D5BAE7D4871
FILE: 04 - Long Night.flac
  Size: 35194431 Hash: 82B3A67ED229CD0A65F0AF15600CFCE7 Accuracy: -m0
  Conclusion: CDDA 100%
  Signature: 5C7AC6A2A8F980DA98CDC22ADDCEA0A32F74AF1B

#7
Код: Выделить всё
[b]Поглощение/вытеснение [/b]
[b]Только с согласия релизера[/b]
[b][u][i]Pashketan[/b][/i][/u]
Не забывайте говорить Спасибо. Не уходите с раздачи!   
Торрент: Зарегистрирован [16 окт 2018, 17:59] Для скачивания .torrent
необходима регистрация
Или скачать с помощью
MediaGet
Статус:
Проверен
 
.torrent скачан: 1 раз
Хэш: a7f2b0db75b3082ea3180c67657569ca733d9894
Размер: 356.8 МБ (374 129 802 байт)
   Стать Автором раздачи
   
Цитата
  • Похожие торренты
    Ответы
    Просмотры
    Последнее сообщение

Вернуться в Music from other genres

Кто сейчас на конференции

Сейчас эту тему просматривают: нет зарегистрированных пользователей и гости: 1