Del Barber - Where the City Ends (2009) [FLAC|Lossless|tracks + .cue] <Folk, World & Country>

 Статистика раздачи 
Размер: 334.38 МБ   |  Зарегистрирован: 16 окт 2018, 16:46   |   .torrent скачан: 0 раз
Сидеров: 0  [ 0 байт/сек ]     Личеров: 0  [ 0 байт/сек ]  
  
Аватара пользователя
 
Раздал: 3.32 ТБ
Скачал: 63.48 ГБ
Ратио: 53.625
Сообщения: 196797
Стаж: 1 год 7 месяцев 21 день

Del Barber - Where the City Ends (2009)

Жанр: Folk, World & Country
Издание: none - DB01
Продолжительность: 00:47:04

Кодек: FLAC
Битрейт: Lossless
Тип рипа: tracks + .cue

Треклист:
01. Morning Song (3:56)
02. Story That You Tell (3:27)
03. Where the City Ends (5:47)
04. Love is Just a Wrecking Ball (4:20)
05. Muddy Palms (4:55)
06. Hurry (4:30)
07. Leather Boot Blues (3:48)
08. Harvest (4:45)
09. Long, Long Winter (4:10)
10. God Damn Desire (3:37)
11. The Party Song (3:48)

Код: Выделить всё
Exact Audio Copy V1.3 from 2. September 2016

EAC extraction logfile from 9. March 2018, 20:37

Del Barber / Where the City Ends

Used drive  : ASUS    DRW-24B1ST   j   Adapter: 1  ID: 0

Read mode               : Secure
Utilize accurate stream : Yes
Defeat audio cache      : Yes
Make use of C2 pointers : No

Read offset correction                      : 6
Overread into Lead-In and Lead-Out          : No
Fill up missing offset samples with silence : Yes
Delete leading and trailing silent blocks   : No
Null samples used in CRC calculations       : Yes
Used interface                              : Native Win32 interface for Win NT & 2000
Gap handling                                : Appended to previous track

Used output format              : User Defined Encoder
Selected bitrate                : 1024 kBit/s
Quality                         : High
Add ID3 tag                     : No
Command line compressor         : C:\Program Files (x86)\flac-1.3.2-win\win64\flac.exe
Additional command line options : -8 -e -p -V -T "ARTIST=%artist%" -T "TITLE=%title%" -T "ALBUM=%albumtitle%" -T "DATE=%year%" -T "TRACKNUMBER=%tracknr%" -T "GENRE=%genre%" -T "PERFORMER=%albuminterpret%" -T "COMPOSER=%composer%" %haslyrics%--tag-from-file=LYRICS="%lyricsfile%"%haslyrics% -T "ALBUMARTIST=%albumartist%" -T "DISCNUMBER=%cdnumber%" -T "TOTALDISCS=%totalcds%" -T "TOTALTRACKS=%numtracks%" -T "COMMENT=%comment%" %source% -o %dest%

TOC of the extracted CD

     Track |   Start  |  Length  | Start sector | End sector
    ---------------------------------------------------------
        1  |  0:00.00 |  3:56.16 |         0    |    17715
        2  |  3:56.16 |  3:26.40 |     17716    |    33205
        3  |  7:22.56 |  5:47.26 |     33206    |    59256
        4  | 13:10.07 |  4:20.25 |     59257    |    78781
        5  | 17:30.32 |  4:55.22 |     78782    |   100928
        6  | 22:25.54 |  4:29.47 |    100929    |   121150
        7  | 26:55.26 |  3:48.11 |    121151    |   138261
        8  | 30:43.37 |  4:44.65 |    138262    |   159626
        9  | 35:28.27 |  4:09.60 |    159627    |   178361
       10  | 39:38.12 |  3:37.05 |    178362    |   194641
       11  | 43:15.17 |  3:48.23 |    194642    |   211764

Track  1

     Filename C:\FLAC\Del Barber - Where the City Ends (2009) [FLAC] {[none]  DB01  CD}\01 - Morning Song.wav

     Pre-gap length  0:00:02.00

     Peak level 95.9 %
     Extraction speed 2.7 X
     Track quality 100.0 %
     Test CRC 9CDA5981
     Copy CRC 9CDA5981
     Cannot be verified as accurate (confidence 1)  [6B04BD15], AccurateRip returned [6BFD844F]  (AR v2)
     Copy OK

Track  2

     Filename C:\FLAC\Del Barber - Where the City Ends (2009) [FLAC] {[none]  DB01  CD}\02 - Story That You Tell.wav

     Peak level 98.4 %
     Extraction speed 2.7 X
     Track quality 100.0 %
     Test CRC 32229E55
     Copy CRC 32229E55
     Cannot be verified as accurate (confidence 1)  [D4B6DD75], AccurateRip returned [2D4841C2]  (AR v2)
     Copy OK

Track  3

     Filename C:\FLAC\Del Barber - Where the City Ends (2009) [FLAC] {[none]  DB01  CD}\03 - Where the City Ends.wav

     Peak level 98.4 %
     Extraction speed 3.7 X
     Track quality 100.0 %
     Test CRC D8C41CD9
     Copy CRC D8C41CD9
     Cannot be verified as accurate (confidence 1)  [5CA51AEC], AccurateRip returned [8C8BA690]  (AR v2)
     Copy OK

Track  4

     Filename C:\FLAC\Del Barber - Where the City Ends (2009) [FLAC] {[none]  DB01  CD}\04 - Love is Just a Wrecking Ball.wav

     Peak level 98.4 %
     Extraction speed 3.4 X
     Track quality 100.0 %
     Test CRC 89CC7130
     Copy CRC 89CC7130
     Cannot be verified as accurate (confidence 1)  [68604379], AccurateRip returned [B5D5531C]  (AR v2)
     Copy OK

Track  5

     Filename C:\FLAC\Del Barber - Where the City Ends (2009) [FLAC] {[none]  DB01  CD}\05 - Muddy Palms.wav

     Peak level 98.4 %
     Extraction speed 3.6 X
     Track quality 100.0 %
     Test CRC 78BDD478
     Copy CRC 78BDD478
     Cannot be verified as accurate (confidence 1)  [BB73481B], AccurateRip returned [C7D81021]  (AR v2)
     Copy OK

Track  6

     Filename C:\FLAC\Del Barber - Where the City Ends (2009) [FLAC] {[none]  DB01  CD}\06 - Hurry.wav

     Peak level 98.4 %
     Extraction speed 3.6 X
     Track quality 100.0 %
     Test CRC 42F69623
     Copy CRC 42F69623
     Cannot be verified as accurate (confidence 1)  [83B499AA], AccurateRip returned [40A014F7]  (AR v2)
     Copy OK

Track  7

     Filename C:\FLAC\Del Barber - Where the City Ends (2009) [FLAC] {[none]  DB01  CD}\07 - Leather Boot Blues.wav

     Peak level 98.4 %
     Extraction speed 3.4 X
     Track quality 100.0 %
     Test CRC 2BFA2BA8
     Copy CRC 2BFA2BA8
     Cannot be verified as accurate (confidence 1)  [C77A8410], AccurateRip returned [BC7D93B3]  (AR v2)
     Copy OK

Track  8

     Filename C:\FLAC\Del Barber - Where the City Ends (2009) [FLAC] {[none]  DB01  CD}\08 - Harvest.wav

     Peak level 98.4 %
     Extraction speed 3.7 X
     Track quality 99.9 %
     Test CRC 588C7A6D
     Copy CRC 588C7A6D
     Cannot be verified as accurate (confidence 1)  [9CECE3A9], AccurateRip returned [ADFF0DC0]  (AR v2)
     Copy OK

Track  9

     Filename C:\FLAC\Del Barber - Where the City Ends (2009) [FLAC] {[none]  DB01  CD}\09 - Long, Long Winter.wav

     Peak level 96.0 %
     Extraction speed 3.8 X
     Track quality 100.0 %
     Test CRC 45B02B19
     Copy CRC 45B02B19
     Cannot be verified as accurate (confidence 1)  [15F19FAB], AccurateRip returned [04F4EF78]  (AR v2)
     Copy OK

Track 10

     Filename C:\FLAC\Del Barber - Where the City Ends (2009) [FLAC] {[none]  DB01  CD}\10 - God Damn Desire.wav

     Peak level 97.2 %
     Extraction speed 3.6 X
     Track quality 100.0 %
     Test CRC 86F84FE9
     Copy CRC 86F84FE9
     Cannot be verified as accurate (confidence 1)  [8370ECA6], AccurateRip returned [035AB2F9]  (AR v2)
     Copy OK

Track 11

     Filename C:\FLAC\Del Barber - Where the City Ends (2009) [FLAC] {[none]  DB01  CD}\11 - The Party Song.wav

     Peak level 98.4 %
     Extraction speed 3.8 X
     Track quality 100.0 %
     Test CRC 14E6ED3B
     Copy CRC 14E6ED3B
     Cannot be verified as accurate (confidence 1)  [12918EF9], AccurateRip returned [EC874EF6]  (AR v2)
     Copy OK

No tracks could be verified as accurate
You may have a different pressing from the one(s) in the database

No errors occurred

End of status report

---- CUETools DB Plugin V2.1.6

[CTDB TOCID: xnZXVP4jf_IRtdz0daSk8tIAI6o-] found
Submit result: xnZXVP4jf_IRtdz0daSk8tIAI6o- has been confirmed
Track | CTDB Status
  1   | (2/2) Accurately ripped
  2   | (2/2) Accurately ripped
  3   | (2/2) Accurately ripped
  4   | (2/2) Accurately ripped
  5   | (2/2) Accurately ripped
  6   | (2/2) Accurately ripped
  7   | (2/2) Accurately ripped
  8   | (2/2) Accurately ripped
  9   | (2/2) Accurately ripped
 10   | (2/2) Accurately ripped
 11   | (2/2) Accurately ripped

==== Log checksum F495F675817189E1008D40B5F887D7F51BDBC3A61FE5C4DDEE7A2936C678DDCB ====
Код: Выделить всё
REM GENRE Folk/Rock
REM DATE 2009
REM DISCID 8F0B070B
REM COMMENT "ExactAudioCopy v1.3"
PERFORMER "Del Barber"
TITLE "Where the City Ends"
REM COMPOSER ""
FILE "01 - Morning Song.wav" WAVE
  TRACK 01 AUDIO
    TITLE "Morning Song"
    PERFORMER "Del Barber"
    REM COMPOSER ""
    ISRC CATBU0900001
    INDEX 01 00:00:00
FILE "02 - Story That You Tell.wav" WAVE
  TRACK 02 AUDIO
    TITLE "Story That You Tell"
    PERFORMER "Del Barber"
    REM COMPOSER ""
    ISRC CATBU0900002
    INDEX 01 00:00:00
FILE "03 - Where the City Ends.wav" WAVE
  TRACK 03 AUDIO
    TITLE "Where the City Ends"
    PERFORMER "Del Barber"
    REM COMPOSER ""
    ISRC CATBU0900003
    INDEX 01 00:00:00
FILE "04 - Love is Just a Wrecking Ball.wav" WAVE
  TRACK 04 AUDIO
    TITLE "Love is Just a Wrecking Ball"
    PERFORMER "Del Barber"
    REM COMPOSER ""
    ISRC CATBU0900004
    INDEX 01 00:00:00
FILE "05 - Muddy Palms.wav" WAVE
  TRACK 05 AUDIO
    TITLE "Muddy Palms"
    PERFORMER "Del Barber"
    REM COMPOSER ""
    ISRC CATBU0900005
    INDEX 01 00:00:00
FILE "06 - Hurry.wav" WAVE
  TRACK 06 AUDIO
    TITLE "Hurry"
    PERFORMER "Del Barber"
    REM COMPOSER ""
    ISRC CATBU0900006
    INDEX 01 00:00:00
FILE "07 - Leather Boot Blues.wav" WAVE
  TRACK 07 AUDIO
    TITLE "Leather Boot Blues"
    PERFORMER "Del Barber"
    REM COMPOSER ""
    ISRC CATBU0900007
    INDEX 01 00:00:00
FILE "08 - Harvest.wav" WAVE
  TRACK 08 AUDIO
    TITLE "Harvest"
    PERFORMER "Del Barber"
    REM COMPOSER ""
    ISRC CATBU0900008
    INDEX 01 00:00:00
FILE "09 - Long, Long Winter.wav" WAVE
  TRACK 09 AUDIO
    TITLE "Long, Long Winter"
    PERFORMER "Del Barber"
    REM COMPOSER ""
    ISRC CATBU0900009
    INDEX 01 00:00:00
FILE "10 - God Damn Desire.wav" WAVE
  TRACK 10 AUDIO
    TITLE "God Damn Desire"
    PERFORMER "Del Barber"
    REM COMPOSER ""
    ISRC CATBU0900010
    INDEX 01 00:00:00
FILE "11 - The Party Song.wav" WAVE
  TRACK 11 AUDIO
    TITLE "The Party Song"
    PERFORMER "Del Barber"
    REM COMPOSER ""
    ISRC CATBU0900011
    INDEX 01 00:00:00
Код: Выделить всё
-----------------------

DON'T MODIFY THIS FILE

-----------------------

PERFORMER: auCDtect Task Manager, ver. 1.6.0 RC1 build 1.6.0.1
Copyright (c) 2008-2010 y-soft. All rights reserved
[url=http://y-soft.org]http://y-soft.org[/url]

ANALYZER: auCDtect: CD records authenticity detector, version 0.8.2
Copyright (c) 2004 Oleg Berngardt. All rights reserved.
Copyright (c) 2004 Alexander Djourik. All rights reserved.

FILE: 04 - Love is Just a Wrecking Ball.flac
  Size: 29787241 Hash: A4EDB31F2C1CED6F99A0644EC387E9A9 Accuracy: -m0
  Conclusion: CDDA 100%
  Signature: 87CAF194E45E8FD62129AA612BFF213F2EA75908
FILE: 03 - Where the City Ends.flac
  Size: 35711514 Hash: 1AE79CA02F0A3F9E2E5CB38FFD4283DC Accuracy: -m0
  Conclusion: CDDA 100%
  Signature: 9FCEEBB6F0D8E7D6F88B56220E559DF5DB64AE27
FILE: 02 - Story That You Tell.flac
  Size: 22111175 Hash: 700948008411990AC4DA31910798E516 Accuracy: -m0
  Conclusion: CDDA 100%
  Signature: D4D3AADCF39FA9A06DF842C984F50FC113A0FD07
FILE: 01 - Morning Song.flac
  Size: 22602867 Hash: 257B413B45F07B650DAC5E8FC3F7D02B Accuracy: -m0
  Conclusion: CDDA 100%
  Signature: 26C8F9488149506083C981AB6E39A9983C275D66
FILE: 11 - The Party Song.flac
  Size: 24400061 Hash: 0ED566B4BDD1153B2CEAF3FB5A8BDA8C Accuracy: -m0
  Conclusion: CDDA 100%
  Signature: 7243F83F2BA2A12B533E044C77659712F2C26871
FILE: 10 - God Damn Desire.flac
  Size: 19031860 Hash: E83A30BABFAD75910CCB0D41F9704651 Accuracy: -m0
  Conclusion: CDDA 100%
  Signature: 88997A7B371A9A3BB6952F428F0B26E65572E8A2
FILE: 09 - Long, Long Winter.flac
  Size: 21167446 Hash: 034B3C7BF637C0449B3A7AB66626DE87 Accuracy: -m0
  Conclusion: CDDA 99%
  Signature: 3B2616F5A303CC556C7529AE0F3B79D39A1DA7E4
FILE: 08 - Harvest.flac
  Size: 28738923 Hash: 7829E90C8EBE614AE449633088B3ECF5 Accuracy: -m0
  Conclusion: CDDA 100%
  Signature: A0F9D6919507FC1DA9EE7DF81A9E6D7032841025
FILE: 07 - Leather Boot Blues.flac
  Size: 24283643 Hash: 923CA22B7B16556ACC0CCC0874777E74 Accuracy: -m0
  Conclusion: CDDA 100%
  Signature: 188ECC4A99FB3D0E7575F2FCD0DC6267FB9C9C3B
FILE: 06 - Hurry.flac
  Size: 25625144 Hash: FBBACADA2E021EF5AC3DC51C2056D170 Accuracy: -m0
  Conclusion: CDDA 100%
  Signature: 244D9F8A1D960F48880BF299AF92A2C8AA362435
FILE: 05 - Muddy Palms.flac
  Size: 25605399 Hash: 6F9EA1AF8D79FB995B4A1D044991133D Accuracy: -m0
  Conclusion: CDDA 100%
  Signature: EE2112994A255BA2424DCC3687BC72F4E1A95BCD

#7
Код: Выделить всё
[b]Поглощение/вытеснение [/b]
[b]Только с согласия релизера[/b]
[b][u][i]Pashketan[/b][/i][/u]
Не забывайте говорить Спасибо. Не уходите с раздачи!   
Торрент: Зарегистрирован [16 окт 2018, 16:46] Для скачивания .torrent
необходима регистрация
Или скачать с помощью
MediaGet
Статус:
Проверен
 
.torrent скачан: 0 раз
Размер: 334.38 МБ (350 619 854 байт)
   Стать Автором раздачи
   
Цитата

Вернуться в Music from other genres

Кто сейчас на конференции

Сейчас эту тему просматривают: нет зарегистрированных пользователей и гости: 1