Gillian Welch - The Harrow & The Harvest (2011) [FLAC|Lossless|tracks + .cue] <Country, Folk>

 Статистика раздачи 
Размер: 249.83 МБ   |  Зарегистрирован: 23 сен 2018, 20:19   |   .torrent скачан: 0 раз
Сидеров: 0  [ 0 байт/сек ]     Личеров: 0  [ 0 байт/сек ]  
  
Аватара пользователя
 
Раздал: 3.36 ТБ
Скачал: 63.98 ГБ
Ратио: 53.828
Сообщения: 197205
Стаж: 1 год 7 месяцев 29 дней

Gillian Welch - The Harrow & The Harvest (2011)

Жанр: Country, Folk
Издание: Acony Records - ACNY-1109
Продолжительность: 00:46:06

Кодек: FLAC
Битрейт: Lossless
Тип рипа: tracks + .cue

Треклист:
01 Scarlet Town (03:38)
02 Dark Turn Of Mind (04:08)
03 The Way It Will Be (04:48)
04 The Way It Goes (04:02)
05 Tennessee (06:36)
06 Down Along The Dixie Line (04:50)
07 Six White Horses (03:38)
08 Hard Times (04:52)
09 Silver Dagger (03:23)
10 The Way The Whole Thing Ends (06:11)
Код: Выделить всё
X Lossless Decoder version 20151214 (149.1)

XLD extraction logfile from 2017-04-12 21:58:01 -0400

Gillian Welch / The Harrow & The Harvest

Used drive : HL-DT-ST DVDRW  GS31N (revision TA17)
Media type : Pressed CD

Ripper mode             : XLD Secure Ripper
Disable audio cache     : OK for the drive with a cache less than 1375KiB
Make use of C2 pointers : NO
Read offset correction  : 667
Max retry count         : 20
Gap status              : Analyzed, Appended (except HTOA)

TOC of the extracted CD
     Track |   Start  |  Length  | Start sector | End sector
    ---------------------------------------------------------
        1  | 00:00:00 | 03:38:36 |         0    |    16385
        2  | 03:38:36 | 04:07:42 |     16386    |    34952
        3  | 07:46:03 | 04:47:61 |     34953    |    56538
        4  | 12:33:64 | 04:01:71 |     56539    |    74684
        5  | 16:35:60 | 06:35:46 |     74685    |   104355
        6  | 23:11:31 | 04:49:60 |    104356    |   126090
        7  | 28:01:16 | 03:38:17 |    126091    |   142457
        8  | 31:39:33 | 04:52:12 |    142458    |   164369
        9  | 36:31:45 | 03:23:04 |    164370    |   179598
       10  | 39:54:49 | 06:11:10 |    179599    |   207433

List of alternate offset correction values
        #  | Absolute | Relative | Confidence
    ------------------------------------------
        1  |    655   |    -12   |     45

AccurateRip Summary (DiscID: 0010e3b7-00887498-920acd0a)
    Track 01 : OK (v1+v2, confidence 209/253)
    Track 02 : OK (v1+v2, confidence 209/253)
    Track 03 : OK (v1+v2, confidence 208/252)
    Track 04 : OK (v1+v2, confidence 206/251)
    Track 05 : OK (v1+v2, confidence 207/251)
    Track 06 : OK (v1+v2, confidence 209/253)
    Track 07 : OK (v1+v2, confidence 207/251)
    Track 08 : OK (v1+v2, confidence 209/253)
    Track 09 : OK (v1+v2, confidence 209/253)
    Track 10 : OK (v1+v2, confidence 204/247)
        ->All tracks accurately ripped.

All Tracks
    Album gain               : -6.01 dB
    Peak                     : 1.000000
    Statistics
        Read error                           : 0
        Jitter error (maybe fixed)           : 0
        Retry sector count                   : 0
        Damaged sector count                 : 0

Track 01
    Filename : /Volumes/MonkeyDrive/Redacted/Gillian Welch - The Harrow & The Harvest (2011) - [FLAC]/01 Scarlet Town.flac
    Pre-gap length : 00:02:00

    Track gain               : -6.69 dB
    Peak                     : 1.000000
    CRC32 hash (test run)    : 5BFB1767
    CRC32 hash               : 5BFB1767
    CRC32 hash (skip zero)   : 70894B63
    AccurateRip v1 signature : CB5F3636
    AccurateRip v2 signature : 24FEC89C
        ->Accurately ripped (v1+v2, confidence 46+163/253)
    Statistics
        Read error                           : 0
        Jitter error (maybe fixed)           : 0
        Retry sector count                   : 0
        Damaged sector count                 : 0

Track 02
    Filename : /Volumes/MonkeyDrive/Redacted/Gillian Welch - The Harrow & The Harvest (2011) - [FLAC]/02 Dark Turn Of Mind.flac

    Track gain               : -5.61 dB
    Peak                     : 0.999939
    CRC32 hash (test run)    : BB5F4965
    CRC32 hash               : BB5F4965
    CRC32 hash (skip zero)   : 260192C8
    AccurateRip v1 signature : BCD98D37
    AccurateRip v2 signature : 6865DA2B
        ->Accurately ripped (v1+v2, confidence 46+163/253)
    Statistics
        Read error                           : 0
        Jitter error (maybe fixed)           : 0
        Retry sector count                   : 0
        Damaged sector count                 : 0

Track 03
    Filename : /Volumes/MonkeyDrive/Redacted/Gillian Welch - The Harrow & The Harvest (2011) - [FLAC]/03 The Way It Will Be.flac

    Track gain               : -5.26 dB
    Peak                     : 1.000000
    CRC32 hash (test run)    : A3481E16
    CRC32 hash               : A3481E16
    CRC32 hash (skip zero)   : 9020AD68
    AccurateRip v1 signature : BD0ACE01
    AccurateRip v2 signature : FE2779FF
        ->Accurately ripped (v1+v2, confidence 45+163/252)
    Statistics
        Read error                           : 0
        Jitter error (maybe fixed)           : 0
        Retry sector count                   : 0
        Damaged sector count                 : 0

Track 04
    Filename : /Volumes/MonkeyDrive/Redacted/Gillian Welch - The Harrow & The Harvest (2011) - [FLAC]/04 The Way It Goes.flac

    Track gain               : -7.83 dB
    Peak                     : 0.977325
    CRC32 hash (test run)    : 4AB131E3
    CRC32 hash               : 4AB131E3
    CRC32 hash (skip zero)   : 2BDD9DA3
    AccurateRip v1 signature : D05DF94C
    AccurateRip v2 signature : 6CC092E5
        ->Accurately ripped (v1+v2, confidence 44+162/251)
    Statistics
        Read error                           : 0
        Jitter error (maybe fixed)           : 0
        Retry sector count                   : 0
        Damaged sector count                 : 0

Track 05
    Filename : /Volumes/MonkeyDrive/Redacted/Gillian Welch - The Harrow & The Harvest (2011) - [FLAC]/05 Tennessee.flac
    Pre-gap length : 00:00:20

    Track gain               : -4.52 dB
    Peak                     : 0.999908
    CRC32 hash (test run)    : BB42B6C8
    CRC32 hash               : BB42B6C8
    CRC32 hash (skip zero)   : 7D41F591
    AccurateRip v1 signature : 196119E4
    AccurateRip v2 signature : 962DB0BE
        ->Accurately ripped (v1+v2, confidence 45+162/251)
    Statistics
        Read error                           : 0
        Jitter error (maybe fixed)           : 0
        Retry sector count                   : 0
        Damaged sector count                 : 0

Track 06
    Filename : /Volumes/MonkeyDrive/Redacted/Gillian Welch - The Harrow & The Harvest (2011) - [FLAC]/06 Down Along The Dixie Line.flac

    Track gain               : -5.61 dB
    Peak                     : 0.988678
    CRC32 hash (test run)    : 51E6AB51
    CRC32 hash               : 51E6AB51
    CRC32 hash (skip zero)   : BE256C06
    AccurateRip v1 signature : 65DE9381
    AccurateRip v2 signature : 09C7BCFD
        ->Accurately ripped (v1+v2, confidence 46+163/253)
    Statistics
        Read error                           : 0
        Jitter error (maybe fixed)           : 0
        Retry sector count                   : 0
        Damaged sector count                 : 0

Track 07
    Filename : /Volumes/MonkeyDrive/Redacted/Gillian Welch - The Harrow & The Harvest (2011) - [FLAC]/07 Six White Horses.flac

    Track gain               : -5.78 dB
    Peak                     : 1.000000
    CRC32 hash (test run)    : E99E1A53
    CRC32 hash               : E99E1A53
    CRC32 hash (skip zero)   : 9F6A063C
    AccurateRip v1 signature : 33D4A582
    AccurateRip v2 signature : 0FB271E4
        ->Accurately ripped (v1+v2, confidence 45+162/251)
    Statistics
        Read error                           : 0
        Jitter error (maybe fixed)           : 0
        Retry sector count                   : 0
        Damaged sector count                 : 0

Track 08
    Filename : /Volumes/MonkeyDrive/Redacted/Gillian Welch - The Harrow & The Harvest (2011) - [FLAC]/08 Hard Times.flac
    Pre-gap length : 00:01:27

    Track gain               : -6.24 dB
    Peak                     : 1.000000
    CRC32 hash (test run)    : 948CEFA4
    CRC32 hash               : 948CEFA4
    CRC32 hash (skip zero)   : 8B7DFD8C
    AccurateRip v1 signature : 4C739FB7
    AccurateRip v2 signature : B69BA794
        ->Accurately ripped (v1+v2, confidence 45+164/253)
    Statistics
        Read error                           : 0
        Jitter error (maybe fixed)           : 0
        Retry sector count                   : 0
        Damaged sector count                 : 0

Track 09
    Filename : /Volumes/MonkeyDrive/Redacted/Gillian Welch - The Harrow & The Harvest (2011) - [FLAC]/09 Silver Dagger.flac
    Pre-gap length : 00:00:37

    Track gain               : -5.75 dB
    Peak                     : 0.999969
    CRC32 hash (test run)    : 3BFE42F3
    CRC32 hash               : 3BFE42F3
    CRC32 hash (skip zero)   : E005DEC5
    AccurateRip v1 signature : CC35F018
    AccurateRip v2 signature : 48E671E1
        ->Accurately ripped (v1+v2, confidence 46+163/253)
    Statistics
        Read error                           : 0
        Jitter error (maybe fixed)           : 0
        Retry sector count                   : 0
        Damaged sector count                 : 0

Track 10
    Filename : /Volumes/MonkeyDrive/Redacted/Gillian Welch - The Harrow & The Harvest (2011) - [FLAC]/10 The Way The Whole Thing Ends.flac

    Track gain               : -4.26 dB
    Peak                     : 0.959351
    CRC32 hash (test run)    : 07006A74
    CRC32 hash               : 07006A74
    CRC32 hash (skip zero)   : 097DEA78
    AccurateRip v1 signature : 44CAB3FB
    AccurateRip v2 signature : 05A3727B
        ->Accurately ripped (v1+v2, confidence 42+162/247)
    Statistics
        Read error                           : 0
        Jitter error (maybe fixed)           : 0
        Retry sector count                   : 0
        Damaged sector count                 : 0

No errors occurred

End of status report

-----BEGIN XLD SIGNATURE-----
ifDJy3FJFIe7IjMkyc20CSvGK6l0BTw0K9sBqM97.olYvKL_MHOz.Z5fGGNfzRrfBY47b8UTZeAVNZg5sdrWotfU6U9jLD1bEwNTB54
-----END XLD SIGNATURE-----
Код: Выделить всё
TITLE "The Harrow & The Harvest"
PERFORMER "Gillian Welch"
CATALOG 0805147110922
REM GENRE "Folk"
REM DATE "2011"
REM DISCNUMBER 1
REM TOTALDISCS 1
REM DISCID 920ACD0A
REM REPLAYGAIN_ALBUM_GAIN -6.01 dB
REM REPLAYGAIN_ALBUM_PEAK 1.000000
FILE "01 Scarlet Town.flac" WAVE
  TRACK 01 AUDIO
    TITLE "Scarlet Town"
    PERFORMER "Gillian Welch"
    SONGWRITER "David Rawlings/Gillian Welch"
    ISRC US2AR1110901
    REM REPLAYGAIN_TRACK_GAIN -6.69 dB
    REM REPLAYGAIN_TRACK_PEAK 1.000000
    INDEX 01 00:00:00
FILE "02 Dark Turn Of Mind.flac" WAVE
  TRACK 02 AUDIO
    TITLE "Dark Turn Of Mind"
    PERFORMER "Gillian Welch"
    SONGWRITER "David Rawlings/Gillian Welch"
    ISRC US2AR1110902
    REM REPLAYGAIN_TRACK_GAIN -5.61 dB
    REM REPLAYGAIN_TRACK_PEAK 0.999939
    INDEX 01 00:00:00
FILE "03 The Way It Will Be.flac" WAVE
  TRACK 03 AUDIO
    TITLE "The Way It Will Be"
    PERFORMER "Gillian Welch"
    SONGWRITER "David Rawlings/Gillian Welch"
    ISRC US2AR1110903
    REM REPLAYGAIN_TRACK_GAIN -5.26 dB
    REM REPLAYGAIN_TRACK_PEAK 1.000000
    INDEX 01 00:00:00
FILE "04 The Way It Goes.flac" WAVE
  TRACK 04 AUDIO
    TITLE "The Way It Goes"
    PERFORMER "Gillian Welch"
    SONGWRITER "David Rawlings/Gillian Welch"
    ISRC US2AR1110904
    REM REPLAYGAIN_TRACK_GAIN -7.83 dB
    REM REPLAYGAIN_TRACK_PEAK 0.977325
    INDEX 01 00:00:00
  TRACK 05 AUDIO
    TITLE "Tennessee"
    PERFORMER "Gillian Welch"
    SONGWRITER "David Rawlings/Gillian Welch"
    ISRC US2AR1110905
    REM REPLAYGAIN_TRACK_GAIN -4.52 dB
    REM REPLAYGAIN_TRACK_PEAK 0.999908
    INDEX 00 04:01:51
FILE "05 Tennessee.flac" WAVE
    INDEX 01 00:00:00
FILE "06 Down Along The Dixie Line.flac" WAVE
  TRACK 06 AUDIO
    TITLE "Down Along The Dixie Line"
    PERFORMER "Gillian Welch"
    SONGWRITER "David Rawlings/Gillian Welch"
    ISRC US2AR1110906
    REM REPLAYGAIN_TRACK_GAIN -5.61 dB
    REM REPLAYGAIN_TRACK_PEAK 0.988678
    INDEX 01 00:00:00
FILE "07 Six White Horses.flac" WAVE
  TRACK 07 AUDIO
    TITLE "Six White Horses"
    PERFORMER "Gillian Welch"
    SONGWRITER "David Rawlings/Gillian Welch"
    ISRC US2AR1110907
    REM REPLAYGAIN_TRACK_GAIN -5.78 dB
    REM REPLAYGAIN_TRACK_PEAK 1.000000
    INDEX 01 00:00:00
  TRACK 08 AUDIO
    TITLE "Hard Times"
    PERFORMER "Gillian Welch"
    SONGWRITER "David Rawlings/Gillian Welch"
    ISRC US2AR1110908
    REM REPLAYGAIN_TRACK_GAIN -6.24 dB
    REM REPLAYGAIN_TRACK_PEAK 1.000000
    INDEX 00 03:36:65
FILE "08 Hard Times.flac" WAVE
    INDEX 01 00:00:00
  TRACK 09 AUDIO
    TITLE "Silver Dagger"
    PERFORMER "Gillian Welch"
    SONGWRITER "David Rawlings/Gillian Welch"
    ISRC US2AR1110909
    REM REPLAYGAIN_TRACK_GAIN -5.75 dB
    REM REPLAYGAIN_TRACK_PEAK 0.999969
    INDEX 00 04:51:50
FILE "09 Silver Dagger.flac" WAVE
    INDEX 01 00:00:00
FILE "10 The Way The Whole Thing Ends.flac" WAVE
  TRACK 10 AUDIO
    TITLE "The Way The Whole Thing Ends"
    PERFORMER "Gillian Welch"
    SONGWRITER "David Rawlings/Gillian Welch"
    ISRC US2AR1110910
    REM REPLAYGAIN_TRACK_GAIN -4.26 dB
    REM REPLAYGAIN_TRACK_PEAK 0.959351
    INDEX 01 00:00:00
Код: Выделить всё
-----------------------

DON'T MODIFY THIS FILE

-----------------------

PERFORMER: auCDtect Task Manager, ver. 1.6.0 RC1 build 1.6.0.1
Copyright (c) 2008-2010 y-soft. All rights reserved
[url=http://y-soft.org]http://y-soft.org[/url]

ANALYZER: auCDtect: CD records authenticity detector, version 0.8.2
Copyright (c) 2004 Oleg Berngardt. All rights reserved.
Copyright (c) 2004 Alexander Djourik. All rights reserved.

FILE: 03 The Way It Will Be.flac
  Size: 25844636 Hash: 5B35DBD84574A30418F497A3D5458DAA Accuracy: -m0
  Conclusion: CDDA 100%
  Signature: 2A325A6C1371BA147DAB8F29C7169FAB5E2C85CA
FILE: 02 Dark Turn Of Mind.flac
  Size: 21584742 Hash: 2E2E1BB79993D6BDCA07F86184D4627F Accuracy: -m0
  Conclusion: CDDA 100%
  Signature: 31423B7306F685032D4B9771B585B55BA21F579D
FILE: 01 Scarlet Town.flac
  Size: 22012449 Hash: 2CD3FCF03F872ABDB935E2D0F840801C Accuracy: -m0
  Conclusion: CDDA 100%
  Signature: 27356FC097406A0F96AA6E877ECF5C7E4EB935C8
FILE: 10 The Way The Whole Thing Ends.flac
  Size: 33184876 Hash: 6A8235147E863618343338A1A173FC0F Accuracy: -m0
  Conclusion: CDDA 100%
  Signature: 81354944A57A478EEBEE20B57051261D61411913
FILE: 09 Silver Dagger.flac
  Size: 19336255 Hash: 2B556DC741693C718378ABD5E57C08DD Accuracy: -m0
  Conclusion: CDDA 100%
  Signature: 0ABBF281FE9751749B477D40A29DC88B31828020
FILE: 08 Hard Times.flac
  Size: 26737831 Hash: 8CB899B3B0608171E47B2032EEC55730 Accuracy: -m0
  Conclusion: CDDA 99%
  Signature: 4FD2FC07588D28D799134DE9F2AEDF6A9A58B1CC
FILE: 07 Six White Horses.flac
  Size: 22649945 Hash: F755EEA0F3DA5EBF51D42F88C21F1DD9 Accuracy: -m0
  Conclusion: CDDA 100%
  Signature: DDC39182AA1E595DB324229CBDD42D4EC4808595
FILE: 06 Down Along The Dixie Line.flac
  Size: 26137141 Hash: 5961D7AC145A137E915AC449FA81B79D Accuracy: -m0
  Conclusion: CDDA 100%
  Signature: 990D9E1072D69B150F088309696D3F45777676E0
FILE: 05 Tennessee.flac
  Size: 39033214 Hash: 2CF28FF48F761DF7D1B95754DB6589B7 Accuracy: -m0
  Conclusion: CDDA 100%
  Signature: E13C7A998DA1B9433285ED03E3319C05D8050D6D
FILE: 04 The Way It Goes.flac
  Size: 25249076 Hash: FBE8BB07A2602E6459A7ADCC712D680A Accuracy: -m0
  Conclusion: CDDA 99%
  Signature: 669EF4FD3BAB4DC7FC868978DE5BC1717B958F4A

#7
Код: Выделить всё
[b]Поглощение/вытеснение [/b]
[b]Только с согласия релизера[/b]
[b][u][i]Pashketan[/b][/i][/u]
Не забывайте говорить Спасибо. Не уходите с раздачи!   
Торрент: Зарегистрирован [23 сен 2018, 20:19] Для скачивания .torrent
необходима регистрация
Или скачать с помощью
MediaGet
Статус:
Проверен
 
.torrent скачан: 0 раз
Хэш: bc9da03b49c7fcc82bf93a82d13ea532ff6dbc3e
Размер: 249.83 МБ (261 961 870 байт)
   Стать Автором раздачи
   
Цитата
  • Похожие торренты
    Ответы
    Просмотры
    Последнее сообщение

Вернуться в Music from other genres

Кто сейчас на конференции

Сейчас эту тему просматривают: нет зарегистрированных пользователей и гости: 1