Alboka - Lau Anaiak (2004) [FLAC|Lossless|tracks + .cue] <Folk, Basque>

 Статистика раздачи 
Размер: 338.64 МБ   |  Зарегистрирован: 15 сен 2018, 09:57   |   .torrent скачан: 0 раз
Сидеров: 0  [ 0 байт/сек ]     Личеров: 0  [ 0 байт/сек ]  
  
Аватара пользователя
 
Раздал: 3.32 ТБ
Скачал: 63.48 ГБ
Ратио: 53.625
Сообщения: 196797
Стаж: 1 год 7 месяцев 21 день

Alboka - Lau Anaiak (2004)

Жанр: Folk, Basque
Издание: Elkar - KD-673
Источник: andrew_kamsky
Продолжительность: 00:46:57

Кодек: FLAC
Битрейт: Lossless
Тип рипа: tracks + .cue

Треклист:
01 - Urrutiko polkak (Las polkas lejanas)
02 - Lau anaiak (Los cuatro hermanos)
03 - Sakabiren biribilketa
04 - Gizonak eztau bear (Al hombre no le pese)
05 - Hariztarren balada (Balada de la gente del roble)
06 - Bonbolostina
07 - Urrestillako festetan
08 - Tilosetako txistua
09 - Bihotzeko Peru Gorri (Jacinto de mis amores)
10 - Ekihaizea (El viento del Este)
11 - Euntegietan (En los cuartos de coser)
12 - Gizon pipartzaleak (Los fumadores de pipa)
13 - Neronek tirako nizkin (Tal vez fui yo quien los tiró)
Код: Выделить всё
Exact Audio Copy V1.3 from 2. September 2016

EAC extraction logfile from 13. July 2017, 11:04

Alboka / Lau anaiak

Used drive  : ATAPI   iHAS122   E   Adapter: 1  ID: 0

Read mode               : Secure
Utilize accurate stream : Yes
Defeat audio cache      : Yes
Make use of C2 pointers : No

Read offset correction                      : 6
Overread into Lead-In and Lead-Out          : No
Fill up missing offset samples with silence : Yes
Delete leading and trailing silent blocks   : No
Null samples used in CRC calculations       : Yes
Used interface                              : Native Win32 interface for Win NT & 2000
Gap handling                                : Appended to previous track

Used output format              : User Defined Encoder
Selected bitrate                : 1024 kBit/s
Quality                         : High
Add ID3 tag                     : No
Command line compressor         : C:\Program Files (x86)\Exact Audio Copy\Flac\flac.exe
Additional command line options : -8 -V -T "ARTIST=%artist%" -T "TITLE=%title%" -T "ALBUM=%albumtitle%" -T "DATE=%year%" -T "TRACKNUMBER=%tracknr%" -T "GENRE=%genre%" -T "PERFORMER=%albuminterpret%" -T "COMPOSER=%composer%" %haslyrics%--tag-from-file=LYRICS="%lyricsfile%"%haslyrics% -T "ALBUMARTIST=%albumartist%" -T "DISCNUMBER=%cdnumber%" -T "TOTALDISCS=%totalcds%" -T "TOTALTRACKS=%numtracks%" -T "COMMENT=%comment%" %source% -o %dest%

TOC of the extracted CD

     Track |   Start  |  Length  | Start sector | End sector
    ---------------------------------------------------------
        1  |  0:00.00 |  2:39.31 |         0    |    11955
        2  |  2:39.31 |  4:33.41 |     11956    |    32471
        3  |  7:12.72 |  3:14.55 |     32472    |    47076
        4  | 10:27.52 |  3:14.47 |     47077    |    61673
        5  | 13:42.24 |  4:22.12 |     61674    |    81335
        6  | 18:04.36 |  3:53.57 |     81336    |    98867
        7  | 21:58.18 |  2:59.72 |     98868    |   112364
        8  | 24:58.15 |  2:49.16 |    112365    |   125055
        9  | 27:47.31 |  3:35.68 |    125056    |   141248
       10  | 31:23.24 |  3:40.40 |    141249    |   157788
       11  | 35:03.64 |  2:55.70 |    157789    |   170983
       12  | 37:59.59 |  3:47.32 |    170984    |   188040
       13  | 41:47.16 |  5:17.16 |    188041    |   211831

Track  1

     Filename D:\Torrents compartidos\Rips EAC\Alboka - Lau anaiak\01 - Urrutiko polkak.wav

     Pre-gap length  0:00:02.00

     Peak level 98.8 %
     Extraction speed 4.6 X
     Track quality 100.0 %
     Test CRC 32344B48
     Copy CRC 32344B48
     Track not present in AccurateRip database
     Copy OK

Track  2

     Filename D:\Torrents compartidos\Rips EAC\Alboka - Lau anaiak\02 - Lau anaiak.wav

     Pre-gap length  0:00:03.00

     Peak level 98.8 %
     Extraction speed 4.7 X
     Track quality 99.9 %
     Test CRC D495F0CA
     Copy CRC D495F0CA
     Track not present in AccurateRip database
     Copy OK

Track  3

     Filename D:\Torrents compartidos\Rips EAC\Alboka - Lau anaiak\03 - Sakabiren biribilketa.wav

     Pre-gap length  0:00:03.00

     Peak level 98.8 %
     Extraction speed 5.7 X
     Track quality 100.0 %
     Test CRC 9F5C4427
     Copy CRC 9F5C4427
     Track not present in AccurateRip database
     Copy OK

Track  4

     Filename D:\Torrents compartidos\Rips EAC\Alboka - Lau anaiak\04 - Gizonak eztau bear.wav

     Peak level 98.8 %
     Extraction speed 6.1 X
     Track quality 100.0 %
     Test CRC 52CF50B1
     Copy CRC 52CF50B1
     Track not present in AccurateRip database
     Copy OK

Track  5

     Filename D:\Torrents compartidos\Rips EAC\Alboka - Lau anaiak\05 - Haritarren balada.wav

     Pre-gap length  0:00:03.00

     Peak level 98.8 %
     Extraction speed 6.7 X
     Track quality 100.0 %
     Test CRC 415A4A52
     Copy CRC 415A4A52
     Track not present in AccurateRip database
     Copy OK

Track  6

     Filename D:\Torrents compartidos\Rips EAC\Alboka - Lau anaiak\06 - Bonbolostina.wav

     Pre-gap length  0:00:03.00

     Peak level 98.8 %
     Extraction speed 7.0 X
     Track quality 100.0 %
     Test CRC 1304601F
     Copy CRC 1304601F
     Track not present in AccurateRip database
     Copy OK

Track  7

     Filename D:\Torrents compartidos\Rips EAC\Alboka - Lau anaiak\07 - Urrestillako festetan.wav

     Pre-gap length  0:00:03.00

     Peak level 98.8 %
     Extraction speed 7.1 X
     Track quality 100.0 %
     Test CRC 7E93465C
     Copy CRC 7E93465C
     Track not present in AccurateRip database
     Copy OK

Track  8

     Filename D:\Torrents compartidos\Rips EAC\Alboka - Lau anaiak\08 - Tilosetako txistua.wav

     Peak level 98.8 %
     Extraction speed 7.3 X
     Track quality 100.0 %
     Test CRC C8DE312A
     Copy CRC C8DE312A
     Track not present in AccurateRip database
     Copy OK

Track  9

     Filename D:\Torrents compartidos\Rips EAC\Alboka - Lau anaiak\09 - Bihotzeko Pern Gorri.wav

     Pre-gap length  0:00:03.00

     Peak level 98.8 %
     Extraction speed 7.8 X
     Track quality 100.0 %
     Test CRC F6E42CF6
     Copy CRC F6E42CF6
     Track not present in AccurateRip database
     Copy OK

Track 10

     Filename D:\Torrents compartidos\Rips EAC\Alboka - Lau anaiak\10 - Ekihaizea.wav

     Peak level 88.1 %
     Extraction speed 8.1 X
     Track quality 100.0 %
     Test CRC 808F537F
     Copy CRC 808F537F
     Track not present in AccurateRip database
     Copy OK

Track 11

     Filename D:\Torrents compartidos\Rips EAC\Alboka - Lau anaiak\11 - Euntegietan.wav

     Peak level 81.8 %
     Extraction speed 6.3 X
     Track quality 99.9 %
     Test CRC A1F61154
     Copy CRC A1F61154
     Track not present in AccurateRip database
     Copy OK

Track 12

     Filename D:\Torrents compartidos\Rips EAC\Alboka - Lau anaiak\12 - Giron pipartzaleak.wav

     Pre-gap length  0:00:03.00

     Peak level 98.8 %
     Extraction speed 7.1 X
     Track quality 99.9 %
     Test CRC 4D7BCD76
     Copy CRC 4D7BCD76
     Track not present in AccurateRip database
     Copy OK

Track 13

     Filename D:\Torrents compartidos\Rips EAC\Alboka - Lau anaiak\13 - Neronek tirako nizkin.wav

     Peak level 98.8 %
     Extraction speed 9.6 X
     Track quality 100.0 %
     Test CRC E8DCECF4
     Copy CRC E8DCECF4
     Track not present in AccurateRip database
     Copy OK

None of the tracks are present in the AccurateRip database

No errors occurred

End of status report

---- CUETools DB Plugin V2.1.6

[CTDB TOCID: wVM4r_IpsueUfrE._gPy5x0G.vw-] found
Submit result: wVM4r_IpsueUfrE._gPy5x0G.vw- has been confirmed
Track | CTDB Status
  1   | (1/1) Accurately ripped
  2   | (1/1) Accurately ripped
  3   | (1/1) Accurately ripped
  4   | (1/1) Accurately ripped
  5   | (1/1) Accurately ripped
  6   | (1/1) Accurately ripped
  7   | (1/1) Accurately ripped
  8   | (1/1) Accurately ripped
  9   | (1/1) Accurately ripped
 10   | (1/1) Accurately ripped
 11   | (1/1) Accurately ripped
 12   | (1/1) Accurately ripped
 13   | (1/1) Accurately ripped

==== Log checksum DAE85952D36FF9984208AEC4E83F8AC6468440B2B43FE145867C91C953D1D579 ====
Код: Выделить всё
REM GENRE Herrikoia
REM DATE 2004
REM DISCID A00B080D
REM COMMENT "ExactAudioCopy v1.3"
PERFORMER "Alboka"
TITLE "Lau anaiak"
REM COMPOSER ""
FILE "01 - Urrutiko polkak.flac" WAVE
  TRACK 01 AUDIO
    TITLE "Urrutiko polkak"
    PERFORMER "Alboka"
    REM COMPOSER ""
    ISRC ES5590400103
    INDEX 01 00:00:00
  TRACK 02 AUDIO
    TITLE "Lau anaiak"
    PERFORMER "Alboka"
    REM COMPOSER ""
    ISRC ES5590400104
    INDEX 00 02:36:31
FILE "01 - Urrutiko polkak.flac" WAVE
    INDEX 01 00:00:00
  TRACK 03 AUDIO
    TITLE "Sakabiren biribilketa"
    PERFORMER "Alboka"
    REM COMPOSER ""
    ISRC ES5590400105
    INDEX 00 04:30:41
FILE "Alboka - Lau anaiak\03 - Sakabiren biribilketa.wav" WAVE
    INDEX 01 00:00:00
FILE "Alboka - Lau anaiak\04 - Gizonak eztau bear.wav" WAVE
  TRACK 04 AUDIO
    TITLE "Gizonak eztau bear"
    PERFORMER "Alboka"
    REM COMPOSER ""
    ISRC ES5590400106
    INDEX 01 00:00:00
  TRACK 05 AUDIO
    TITLE "Haritarren balada"
    PERFORMER "Alboka"
    REM COMPOSER ""
    ISRC ES5590400107
    INDEX 00 03:11:47
FILE "Alboka - Lau anaiak\05 - Haritarren balada.wav" WAVE
    INDEX 01 00:00:00
  TRACK 06 AUDIO
    TITLE "Bonbolostina"
    PERFORMER "Alboka"
    REM COMPOSER ""
    ISRC ES5590400108
    INDEX 00 04:19:12
FILE "Alboka - Lau anaiak\06 - Bonbolostina.wav" WAVE
    INDEX 01 00:00:00
  TRACK 07 AUDIO
    TITLE "Urrestillako festetan"
    PERFORMER "Alboka"
    REM COMPOSER ""
    ISRC ES5590400109
    INDEX 00 03:50:57
FILE "Alboka - Lau anaiak\07 - Urrestillako festetan.wav" WAVE
    INDEX 01 00:00:00
FILE "Alboka - Lau anaiak\08 - Tilosetako txistua.wav" WAVE
  TRACK 08 AUDIO
    TITLE "Tilosetako txistua"
    PERFORMER "Alboka"
    REM COMPOSER ""
    ISRC ES5590400110
    INDEX 01 00:00:00
  TRACK 09 AUDIO
    TITLE "Bihotzeko Pern Gorri"
    PERFORMER "Alboka"
    REM COMPOSER ""
    ISRC ES5590400111
    INDEX 00 02:46:16
FILE "Alboka - Lau anaiak\09 - Bihotzeko Pern Gorri.wav" WAVE
    INDEX 01 00:00:00
FILE "Alboka - Lau anaiak\10 - Ekihaizea.wav" WAVE
  TRACK 10 AUDIO
    TITLE "Ekihaizea"
    PERFORMER "Alboka"
    REM COMPOSER ""
    ISRC ES5590400112
    INDEX 01 00:00:00
FILE "Alboka - Lau anaiak\11 - Euntegietan.wav" WAVE
  TRACK 11 AUDIO
    TITLE "Euntegietan"
    PERFORMER "Alboka"
    REM COMPOSER ""
    ISRC ES5590400113
    INDEX 01 00:00:00
  TRACK 12 AUDIO
    TITLE "Giron pipartzaleak"
    PERFORMER "Alboka"
    REM COMPOSER ""
    ISRC ES5590400114
    INDEX 00 02:52:70
FILE "Alboka - Lau anaiak\12 - Giron pipartzaleak.wav" WAVE
    INDEX 01 00:00:00
FILE "Alboka - Lau anaiak\13 - Neronek tirako nizkin.wav" WAVE
  TRACK 13 AUDIO
    TITLE "Neronek tirako nizkin"
    PERFORMER "Alboka"
    REM COMPOSER ""
    ISRC ES5590400115
    INDEX 01 00:00:00
Код: Выделить всё
-----------------------

DON'T MODIFY THIS FILE

-----------------------

PERFORMER: auCDtect Task Manager, ver. 1.6.0 RC1 build 1.6.0.1
Copyright (c) 2008-2010 y-soft. All rights reserved
[url=http://y-soft.org]http://y-soft.org[/url]

ANALYZER: auCDtect: CD records authenticity detector, version 0.8.2
Copyright (c) 2004 Oleg Berngardt. All rights reserved.
Copyright (c) 2004 Alexander Djourik. All rights reserved.

FILE: 13 - Neronek tirako nizkin.flac
  Size: 35878097 Hash: 5B6EE6C26B7E4AC8F3908474618F2BE5 Accuracy: -m0
  Conclusion: CDDA 100%
  Signature: F8BA5E5029EB729A52A157BEAE06B378B8B841CB
FILE: 12 - Giron pipartzaleak.flac
  Size: 26362791 Hash: 31CA8A6F2F702297AF34C82E71D6DE3B Accuracy: -m0
  Conclusion: CDDA 100%
  Signature: 7D76A03F6301FAA4B994144BC4D7D201C359C069
FILE: 11 - Euntegietan.flac
  Size: 15700991 Hash: 2488CCC2690438374AE52B4FE4EC1822 Accuracy: -m0
  Conclusion: CDDA 100%
  Signature: B080AD666C2909D7B4ECDB2212EEFD732F6FD064
FILE: 10 - Ekihaizea.flac
  Size: 24837477 Hash: 5083BF0C9183D4B988CF1E34CA2D4AB1 Accuracy: -m0
  Conclusion: CDDA 100%
  Signature: FA25C2EBB213D0C8B71BAEFAD1C4E1EE7401E1F3
FILE: 09 - Bihotzeko Pern Gorri.flac
  Size: 23318084 Hash: 6DF04F75428CE22FA67620468176FC3D Accuracy: -m0
  Conclusion: CDDA 99%
  Signature: 19EE4BC16B1D75502876B24915B7C91A70400775
FILE: 08 - Tilosetako txistua.flac
  Size: 19061175 Hash: D82F913F401EA68E98549BD942DBE978 Accuracy: -m0
  Conclusion: CDDA 100%
  Signature: CF91746E898B8DB11DF123F8A1FBFD1889F0CD38
FILE: 07 - Urrestillako festetan.flac
  Size: 18858498 Hash: 51591EB766AF7D98F95CF38204562916 Accuracy: -m0
  Conclusion: CDDA 99%
  Signature: 63DCA41248129E82BDEE6AE00E2127BBDAE552FA
FILE: 06 - Bonbolostina.flac
  Size: 27005470 Hash: B78AC285A712236D54B89ACD58D3E8F2 Accuracy: -m0
  Conclusion: CDDA 100%
  Signature: 0725646633878236F8A2E71EE0F7C674096E6876
FILE: 05 - Haritarren balada.flac
  Size: 27547043 Hash: 1FD0E631A39E831CC58F4C8D6D5E222A Accuracy: -m0
  Conclusion: CDDA 100%
  Signature: D502F40B2D776C113C13B5E6160B2B9535FB2E71
FILE: 04 - Gizonak eztau bear.flac
  Size: 23454372 Hash: 63C8150FCC82D9B66C0CEDE4124BE1AB Accuracy: -m0
  Conclusion: CDDA 99%
  Signature: 965BFB623D0E26842C264E1B8B3426C63F89AD10
FILE: 03 - Sakabiren biribilketa.flac
  Size: 20701483 Hash: EE262843FCB28B4772F326F43A75172E Accuracy: -m0
  Conclusion: CDDA 100%
  Signature: 3E458D4D37987D7663D08DC4750928EA40D8D2FA
FILE: 02 - Lau anaiak.flac
  Size: 31802865 Hash: F367F89A7D76918D4CE331F4721DB4D7 Accuracy: -m0
  Conclusion: CDDA 100%
  Signature: 0285DC89FB1C093AFEB0315A47A552A6A0065F43
FILE: 01 - Urrutiko polkak.flac
  Size: 19208811 Hash: E6F2C8893481B1B114167E61066740A6 Accuracy: -m0
  Conclusion: CDDA 100%
  Signature: F526389B2C75ED12454417D37BD834F1133D42E1

#7
Код: Выделить всё
[b]Поглощение/вытеснение [/b]
[b]Только с согласия релизера[/b]
[b][u][i]Чех[/b][/i][/u]
Не забывайте говорить Спасибо. Не уходите с раздачи!   
Торрент: Зарегистрирован [15 сен 2018, 09:57] Для скачивания .torrent
необходима регистрация
Или скачать с помощью
MediaGet
Статус:
Проверен
 
.torrent скачан: 0 раз
Размер: 338.64 МБ (355 089 132 байт)
   Стать Автором раздачи
   
Цитата

Вернуться в Music from other genres

Кто сейчас на конференции

Сейчас эту тему просматривают: нет зарегистрированных пользователей и гости: 1