Gurrumul - Djarimirri (Child of the Rainbow) (2018) [FLAC|Lossless|tracks + .cue] <Australian Folk, World Music, Classical Crossover>

 Статистика раздачи 
Размер: 434.04 МБ   |  Зарегистрирован: 09 сен 2018, 16:46   |   .torrent скачан: 0 раз
Сидеров: 4  [ 0 байт/сек ]     Личеров: 1  [ 0 байт/сек ]  
  
Аватара пользователя
 
Раздал: 3.36 ТБ
Скачал: 63.98 ГБ
Ратио: 53.828
Сообщения: 197205
Стаж: 1 год 7 месяцев 29 дней

Gurrumul - Djarimirri (Child of the Rainbow) (2018)

Жанр: Australian Folk, World Music, Classical Crossover
Издание: Skinnyfish Music - SFGU180413
Источник: domednest
Продолжительность: 01:10:57

Кодек: FLAC
Битрейт: Lossless
Тип рипа: tracks + .cue

Треклист:
01. Waak (Crow) In E-Flat Major (05:08)
02. Galiku (Flag) In D-Flat Major (05:01)
03. Ngarrpiya (Octopus) In A-Flat Major (06:09)
04. Djarimirri (Child Of The Rainbow) In E-Flat Major (05:08)
05. Djolin (Musical Instrument) In E-Flat Major (05:56)
06. Marrayarr (Flag) In F-Sharp Major (07:42)
07. Gapu (Freshwater) In D Major (05:21)
08. Djilawurr (Scrubfowl) In D Major (05:04)
09. Baru (Saltwater Crocodile) In E-Flat Major (05:50)
10. Gopuru (Tuna Swimming) In B-Flat Major (06:34)
11. Djapana (Sunset) In A-Flat Major (05:08)
12. Wulminda (Dark Clouds) In E-Flat Major (07:56)
Состав:
Woodwind – Cor Anglais, Matthew Tighe
Trombone – Justin Kearin
Trumpet – David Elton
Bass Trombone – Brett Page
Bass Clarinet – Jason Noble
Horn – Ben Jacks
Double Bass – David Campbell
Viola – Alexandru-Mihai Bota, David Wicks, Nicole Divall
Violin – Ilya Isakovich, Lucy Warren, Veronique Serret
Cello – Heather Lindsay, Julian Thompson (2)
Harpsichord – Tamara Anna Cislowska
Percussion – Bree Van Reyk

Arranged By – Erkki Veltheim, Gurrumul Yunupingu, Michael Hohnen
Producer – Michael Hohnen
Translated By – Charlie Latulu Yunupingu, Dhapanbal Yunupingu, Ishmael Marika, John Greatorex
Код: Выделить всё
Exact Audio Copy V1.3 from 2. September 2016

EAC extraction logfile from 7. September 2018, 19:44

Gurrumul / Djarimirri (Child of the Rainbow)

Used drive  : hp      CDDVDW SH-216AL   Adapter: 1  ID: 0

Read mode               : Secure
Utilize accurate stream : Yes
Defeat audio cache      : Yes
Make use of C2 pointers : No

Read offset correction                      : 6
Overread into Lead-In and Lead-Out          : No
Fill up missing offset samples with silence : Yes
Delete leading and trailing silent blocks   : No
Null samples used in CRC calculations       : Yes
Used interface                              : Native Win32 interface for Win NT & 2000
Gap handling                                : Appended to previous track

Used output format              : User Defined Encoder
Selected bitrate                : 1024 kBit/s
Quality                         : High
Add ID3 tag                     : No
Command line compressor         : C:\Program Files (x86)\Exact Audio Copy\Flac\flac.exe
Additional command line options : -8 -e -p -V -T "ARTIST=%artist%" -T "TITLE=%title%" -T "ALBUM=%albumtitle%" -T "DATE=%year%" -T "TRACKNUMBER=%tracknr%" -T "GENRE=%genre%" -T "PERFORMER=%albuminterpret%" -T "COMPOSER=%composer%" %haslyrics%--tag-from-file=LYRICS="%lyricsfile%"%haslyrics% -T "ALBUMARTIST=%albumartist%" -T "DISCNUMBER=%cdnumber%" -T "TOTALDISCS=%totalcds%" -T "TOTALTRACKS=%numtracks%" -T "COMMENT=%comment%" %source% -o %dest%

TOC of the extracted CD

     Track |   Start  |  Length  | Start sector | End sector
    ---------------------------------------------------------
        1  |  0:00.00 |  5:08.00 |         0    |    23099
        2  |  5:08.00 |  5:01.00 |     23100    |    45674
        3  | 10:09.00 |  6:09.00 |     45675    |    73349
        4  | 16:18.00 |  5:08.00 |     73350    |    96449
        5  | 21:26.00 |  5:56.00 |     96450    |   123149
        6  | 27:22.00 |  7:42.00 |    123150    |   157799
        7  | 35:04.00 |  5:21.00 |    157800    |   181874
        8  | 40:25.00 |  5:04.00 |    181875    |   204674
        9  | 45:29.00 |  5:50.00 |    204675    |   230924
       10  | 51:19.00 |  6:34.00 |    230925    |   260474
       11  | 57:53.00 |  5:08.00 |    260475    |   283574
       12  | 63:01.00 |  7:56.00 |    283575    |   319274

Track  1

     Filename C:\Rips v4\Gurrumul - Djarimirri (Child of the Rainbow) {2018} [SFGU180413] (FLAC)\01 - Waak (Crow) in E-Flat Major.wav

     Pre-gap length  0:00:02.00

     Peak level 95.6 %
     Extraction speed 4.7 X
     Track quality 100.0 %
     Test CRC EC8A060A
     Copy CRC EC8A060A
     Accurately ripped (confidence 2)  [1A7A114B]  (AR v2)
     Copy OK

Track  2

     Filename C:\Rips v4\Gurrumul - Djarimirri (Child of the Rainbow) {2018} [SFGU180413] (FLAC)\02 - Galiku (Flag) in D-Flat Major.wav

     Peak level 95.7 %
     Extraction speed 5.2 X
     Track quality 100.0 %
     Test CRC B462958C
     Copy CRC B462958C
     Accurately ripped (confidence 2)  [202EB007]  (AR v2)
     Copy OK

Track  3

     Filename C:\Rips v4\Gurrumul - Djarimirri (Child of the Rainbow) {2018} [SFGU180413] (FLAC)\03 - Ngarrpiya (Octopus) in A-Flat Major.wav

     Peak level 95.8 %
     Extraction speed 5.9 X
     Track quality 100.0 %
     Test CRC 42C97E00
     Copy CRC 42C97E00
     Accurately ripped (confidence 2)  [CE32CE62]  (AR v2)
     Copy OK

Track  4

     Filename C:\Rips v4\Gurrumul - Djarimirri (Child of the Rainbow) {2018} [SFGU180413] (FLAC)\04 - Djarimirri (Child of the Rainbow) in E-Flat Major.wav

     Peak level 95.8 %
     Extraction speed 6.2 X
     Track quality 100.0 %
     Test CRC EAC5E75D
     Copy CRC EAC5E75D
     Accurately ripped (confidence 2)  [AFA3657F]  (AR v2)
     Copy OK

Track  5

     Filename C:\Rips v4\Gurrumul - Djarimirri (Child of the Rainbow) {2018} [SFGU180413] (FLAC)\05 - Djolin (Musical Instrument) in D Major.wav

     Peak level 96.8 %
     Extraction speed 6.8 X
     Track quality 100.0 %
     Test CRC 58150C58
     Copy CRC 58150C58
     Accurately ripped (confidence 2)  [BD5F024D]  (AR v2)
     Copy OK

Track  6

     Filename C:\Rips v4\Gurrumul - Djarimirri (Child of the Rainbow) {2018} [SFGU180413] (FLAC)\06 - Marrayarr (Flag) in F-Sharp Major.wav

     Peak level 96.0 %
     Extraction speed 7.4 X
     Track quality 100.0 %
     Test CRC 322ED545
     Copy CRC 322ED545
     Accurately ripped (confidence 2)  [C94FF3DB]  (AR v2)
     Copy OK

Track  7

     Filename C:\Rips v4\Gurrumul - Djarimirri (Child of the Rainbow) {2018} [SFGU180413] (FLAC)\07 - Gapu (Freshwater) in D Major.wav

     Peak level 95.7 %
     Extraction speed 6.4 X
     Track quality 99.9 %
     Test CRC CAEAA263
     Copy CRC CAEAA263
     Accurately ripped (confidence 2)  [F145365C]  (AR v2)
     Copy OK

Track  8

     Filename C:\Rips v4\Gurrumul - Djarimirri (Child of the Rainbow) {2018} [SFGU180413] (FLAC)\08 - Djilawurr (Scrubfowl) in D Major.wav

     Peak level 95.6 %
     Extraction speed 7.9 X
     Track quality 100.0 %
     Test CRC AA9974C4
     Copy CRC AA9974C4
     Accurately ripped (confidence 2)  [C9120F19]  (AR v2)
     Copy OK

Track  9

     Filename C:\Rips v4\Gurrumul - Djarimirri (Child of the Rainbow) {2018} [SFGU180413] (FLAC)\09 - Baru (Saltwater Crocodile) in E-Flat Major.wav

     Peak level 96.0 %
     Extraction speed 8.4 X
     Track quality 100.0 %
     Test CRC 8DF7E028
     Copy CRC 8DF7E028
     Accurately ripped (confidence 2)  [867134DE]  (AR v2)
     Copy OK

Track 10

     Filename C:\Rips v4\Gurrumul - Djarimirri (Child of the Rainbow) {2018} [SFGU180413] (FLAC)\10 - Gopuru (Tuna Swimming) in B-Flat Major.wav

     Peak level 95.6 %
     Extraction speed 8.7 X
     Track quality 100.0 %
     Test CRC E036E88D
     Copy CRC E036E88D
     Accurately ripped (confidence 2)  [77776641]  (AR v2)
     Copy OK

Track 11

     Filename C:\Rips v4\Gurrumul - Djarimirri (Child of the Rainbow) {2018} [SFGU180413] (FLAC)\11 - Djapana (Sunset) in A-Flat Major.wav

     Peak level 96.8 %
     Extraction speed 8.8 X
     Track quality 100.0 %
     Test CRC 5B95A924
     Copy CRC 5B95A924
     Accurately ripped (confidence 2)  [1B2A5147]  (AR v2)
     Copy OK

Track 12

     Filename C:\Rips v4\Gurrumul - Djarimirri (Child of the Rainbow) {2018} [SFGU180413] (FLAC)\12 - Wulminda (Dark Clouds) in E-Flat Major.wav

     Peak level 95.6 %
     Extraction speed 9.5 X
     Track quality 100.0 %
     Test CRC 550DCDEC
     Copy CRC 550DCDEC
     Accurately ripped (confidence 2)  [688A2AB4]  (AR v2)
     Copy OK

All tracks accurately ripped

No errors occurred

End of status report

---- CUETools DB Plugin V2.1.6

[CTDB TOCID: HhPHhj6sdMWEjGq7auQ7D2n204A-] found
Submit result: HhPHhj6sdMWEjGq7auQ7D2n204A- has been confirmed
Track | CTDB Status
  1   | (22/23) Accurately ripped
  2   | (23/23) Accurately ripped
  3   | (23/23) Accurately ripped
  4   | (23/23) Accurately ripped
  5   | (23/23) Accurately ripped
  6   | (23/23) Accurately ripped
  7   | (23/23) Accurately ripped
  8   | (23/23) Accurately ripped
  9   | (23/23) Accurately ripped
 10   | (23/23) Accurately ripped
 11   | (23/23) Accurately ripped
 12   | (23/23) Accurately ripped

==== Log checksum 3D6628F80EF2252AAEE218DAAF4702353D5F58FDD479DD4150E9743858A90BC9 ====
Код: Выделить всё
REM DATE 2018
REM DISCID 9A10A10C
REM COMMENT "ExactAudioCopy v1.3"
CATALOG 9324690144556
PERFORMER "Gurrumul"
TITLE "Djarimirri (Child of the Rainbow)"
REM COMPOSER "Gurrumul"
FILE "01 - Waak (Crow) in E-Flat Major.wav" WAVE
  TRACK 01 AUDIO
    TITLE "Waak (Crow) in E-Flat Major"
    PERFORMER "Gurrumul"
    REM COMPOSER "Gurrumul"
    ISRC SFOAU1801093
    INDEX 01 00:00:00
FILE "02 - Galiku (Flag) in D-Flat Major.wav" WAVE
  TRACK 02 AUDIO
    TITLE "Galiku (Flag) in D-Flat Major"
    PERFORMER "Gurrumul"
    REM COMPOSER "Gurrumul"
    ISRC SFOAU1801094
    INDEX 01 00:00:00
FILE "03 - Ngarrpiya (Octopus) in A-Flat Major.wav" WAVE
  TRACK 03 AUDIO
    TITLE "Ngarrpiya (Octopus) in A-Flat Major"
    PERFORMER "Gurrumul"
    REM COMPOSER "Gurrumul"
    ISRC SFOAU1801095
    INDEX 01 00:00:00
FILE "04 - Djarimirri (Child of the Rainbow) in E-Flat Major.wav" WAVE
  TRACK 04 AUDIO
    TITLE "Djarimirri (Child of the Rainbow) in E-Flat Major"
    PERFORMER "Gurrumul"
    REM COMPOSER "Gurrumul"
    ISRC SFOAU1801096
    INDEX 01 00:00:00
FILE "05 - Djolin (Musical Instrument) in D Major.wav" WAVE
  TRACK 05 AUDIO
    TITLE "Djolin (Musical Instrument) in D Major"
    PERFORMER "Gurrumul"
    REM COMPOSER "Gurrumul"
    ISRC SFOAU1801097
    INDEX 01 00:00:00
FILE "06 - Marrayarr (Flag) in F-Sharp Major.wav" WAVE
  TRACK 06 AUDIO
    TITLE "Marrayarr (Flag) in F-Sharp Major"
    PERFORMER "Gurrumul"
    REM COMPOSER "Gurrumul"
    ISRC SFOAU1801098
    INDEX 01 00:00:00
FILE "07 - Gapu (Freshwater) in D Major.wav" WAVE
  TRACK 07 AUDIO
    TITLE "Gapu (Freshwater) in D Major"
    PERFORMER "Gurrumul"
    REM COMPOSER "Gurrumul"
    ISRC SFOAU1801099
    INDEX 01 00:00:00
FILE "08 - Djilawurr (Scrubfowl) in D Major.wav" WAVE
  TRACK 08 AUDIO
    TITLE "Djilawurr (Scrubfowl) in D Major"
    PERFORMER "Gurrumul"
    REM COMPOSER "Gurrumul"
    ISRC SFOAU1801100
    INDEX 01 00:00:00
FILE "09 - Baru (Saltwater Crocodile) in E-Flat Major.wav" WAVE
  TRACK 09 AUDIO
    TITLE "Baru (Saltwater Crocodile) in E-Flat Major"
    PERFORMER "Gurrumul"
    REM COMPOSER "Gurrumul"
    ISRC SFOAU1801101
    INDEX 01 00:00:00
FILE "10 - Gopuru (Tuna Swimming) in B-Flat Major.wav" WAVE
  TRACK 10 AUDIO
    TITLE "Gopuru (Tuna Swimming) in B-Flat Major"
    PERFORMER "Gurrumul"
    REM COMPOSER "Gurrumul"
    ISRC SFOAU1801102
    INDEX 01 00:00:00
FILE "11 - Djapana (Sunset) in A-Flat Major.wav" WAVE
  TRACK 11 AUDIO
    TITLE "Djapana (Sunset) in A-Flat Major"
    PERFORMER "Gurrumul"
    REM COMPOSER "Gurrumul"
    ISRC SFOAU1801103
    INDEX 01 00:00:00
FILE "12 - Wulminda (Dark Clouds) in E-Flat Major.wav" WAVE
  TRACK 12 AUDIO
    TITLE "Wulminda (Dark Clouds) in E-Flat Major"
    PERFORMER "Gurrumul"
    REM COMPOSER "Gurrumul"
    ISRC SFOAU1801104
    INDEX 01 00:00:00
Код: Выделить всё
-----------------------

DON'T MODIFY THIS FILE

-----------------------

PERFORMER: auCDtect Task Manager, ver. 1.6.0 RC1 build 1.6.0.1
Copyright (c) 2008-2010 y-soft. All rights reserved
[url=http://y-soft.org]http://y-soft.org[/url]

ANALYZER: auCDtect: CD records authenticity detector, version 0.8.2
Copyright (c) 2004 Oleg Berngardt. All rights reserved.
Copyright (c) 2004 Alexander Djourik. All rights reserved.

FILE: 12 - Wulminda (Dark Clouds) in E-Flat Major.flac
  Size: 49283452 Hash: 158F744F63CD3315048F20E51DD0350B Accuracy: -m0
  Conclusion: CDDA 100%
  Signature: A722A19150B52F423669AEBE5B2579A4AC68A5EE
FILE: 11 - Djapana (Sunset) in A-Flat Major.flac
  Size: 32778267 Hash: 0999F21D2FC4DA6C1678DA7653B6BA54 Accuracy: -m0
  Conclusion: CDDA 100%
  Signature: 3133DF7F9B1D2C4CBAAA294BE06C2E511C4DF70A
FILE: 10 - Gopuru (Tuna Swimming) in B-Flat Major.flac
  Size: 44634585 Hash: 6D5EA4DFD0F69133D4CC2475F26C6634 Accuracy: -m0
  Conclusion: CDDA 100%
  Signature: E4726607C0ACB175B96EA51C1916A0DC3E95171E
FILE: 09 - Baru (Saltwater Crocodile) in E-Flat Major.flac
  Size: 34884393 Hash: 78EC58960E4267CF4DBCD4C941AD580F Accuracy: -m0
  Conclusion: CDDA 100%
  Signature: 0B40A5C1DBD6F375183205D3294E1C60CED30D14
FILE: 08 - Djilawurr (Scrubfowl) in D Major.flac
  Size: 34493858 Hash: 3636332D9A704B80CAE297F7C616F8C9 Accuracy: -m0
  Conclusion: CDDA 100%
  Signature: 0410C24470AC5990CB621CFA812DC50A243F3622
FILE: 07 - Gapu (Freshwater) in D Major.flac
  Size: 33904495 Hash: 59ADAEF55FD412D39E8D9C9E9EE8C4F3 Accuracy: -m0
  Conclusion: CDDA 100%
  Signature: 859D35769A989B00457CCEB1B63D647C6420992F
FILE: 06 - Marrayarr (Flag) in F-Sharp Major.flac
  Size: 46971957 Hash: A2C62EA51437488A7A503D3B62458712 Accuracy: -m0
  Conclusion: CDDA 100%
  Signature: 6EDF71F6672665BF539AC02F0CD528B0B33B0B9F
FILE: 05 - Djolin (Musical Instrument) in D Major.flac
  Size: 38311636 Hash: DF1A5704405B30596CD579879C02CC12 Accuracy: -m0
  Conclusion: CDDA 100%
  Signature: 9D860F0A9D5A25A4FDAFEC13AE79CA6DFB47B474
FILE: 04 - Djarimirri (Child of the Rainbow) in E-Flat Major.flac
  Size: 33050067 Hash: CD5C4B4C59C7E35A1A8500ED5AF4877C Accuracy: -m0
  Conclusion: CDDA 100%
  Signature: F17E85E59ECE42FF3D92667780BE2923DB3121DD
FILE: 03 - Ngarrpiya (Octopus) in A-Flat Major.flac
  Size: 40137598 Hash: DD3553EE1B646693108A89FC77A9B917 Accuracy: -m0
  Conclusion: CDDA 100%
  Signature: CF8F0DA8676B806A21BDBD68DB61042333A4865A
FILE: 02 - Galiku (Flag) in D-Flat Major.flac
  Size: 34421983 Hash: F0266ADC6A70676D0FA7225CED7F7C59 Accuracy: -m0
  Conclusion: CDDA 100%
  Signature: 5F2DBFCE2B9B456CAB6AF9A31D60AAC21E0A9732
FILE: 01 - Waak (Crow) in E-Flat Major.flac
  Size: 32173235 Hash: 8F46359F36DE5C3899A3D6F340FEFEA2 Accuracy: -m0
  Conclusion: CDDA 100%
  Signature: 66DE86F93BF5B66A82C55B635927839079421620

#7
Код: Выделить всё
[b]Поглощение/вытеснение [/b]
[b]Только с согласия релизера[/b]
[b][u][i]Чех[/b][/i][/u]
Не забывайте говорить Спасибо. Не уходите с раздачи!   
Торрент: Зарегистрирован [09 сен 2018, 16:46] Для скачивания .torrent
необходима регистрация
Или скачать с помощью
MediaGet
Статус:
Проверен
 
.torrent скачан: 0 раз
Хэш: 3b26d1d343b2e14d158eaadf6d624d65f6c1cbe9
Размер: 434.04 МБ (455 119 984 байт)
   Стать Автором раздачи
   
Цитата

Вернуться в Music from other genres

Кто сейчас на конференции

Сейчас эту тему просматривают: нет зарегистрированных пользователей и гости: 1