VA - Brazil 70: After Tropicalia: New Directions in Brazilian Music in the 1970s (2007) [FLAC|Lossless|tracks + .cue] <Folk Rock, Bossanova, MPB, Latin Jazz>

 Статистика раздачи 
Размер: 448.14 МБ   |  Зарегистрирован: 07 сен 2018, 15:22   |   .torrent скачан: 0 раз
Сидеров: 0  [ 0 байт/сек ]     Личеров: 0  [ 0 байт/сек ]  
  
Аватара пользователя
 
Раздал: 3.32 ТБ
Скачал: 63.48 ГБ
Ратио: 53.625
Сообщения: 196797
Стаж: 1 год 7 месяцев 21 день

VA - Brazil 70: After Tropicalia: New Directions in Brazilian Music in the 1970s (2007)

Жанр: Folk Rock, Bossanova, MPB, Latin Jazz
Издание: Soul Jazz Records ‎- SJR LP 164
Продолжительность: 01:07:38

Кодек: FLAC
Битрейт: Lossless
Тип рипа: tracks + .cue

Треклист:
01. Secos & Molhados - Amor (02:18)
02. Alceu Valença - Punhal de Prata (03:12)
03. Novos Baianos - Tinindo Trincando (03:25)
04. Jaime Alem & Nair de Cândia - Passará (04:12)
05. Tom Zé - Correio da Estação do Brás (04:16)
06. Gilberto Gil - Sai do Sereno (03:22)
07. Raul Seixas - Mosca na Sopa (03:54)
08. Erasmo Carlos - Mané João (03:02)
09. Jards Macalé - Farinha do Desprezo (04:33)
10. Gilberto Gil - O Canto da Ema (06:23)
11. Nelson Angelo & Joyce - Vivo ou Morto (02:25)
12. Gal Costa - Pontos de Luz (02:43)
13. Raul Seixas - As Aventuras De Raul Seixas Na Cidade De Thor (03:48)
14. Nelson Angelo & Joyce - Sete Cachorros (02:44)
15. Caetano Veloso - Jóia (01:28)
16. Rita Lee - Corista de Rock (03:37)
17. Ednardo e o Pessoal do Ceará - Ingazeiras (03:07)
18. Novos Baianos - América Tropical (04:27)
19. Mar Revolto - Contendas de Sincorá (04:32)
Код: Выделить всё
Exact Audio Copy V1.3 from 2. September 2016

EAC extraction logfile from 6. April 2017, 15:17

Various Artists / Brazil 70

Used drive  : MATSHITADVD-R   UJ-898   Adapter: 1  ID: 0

Read mode               : Secure
Utilize accurate stream : Yes
Defeat audio cache      : Yes
Make use of C2 pointers : No

Read offset correction                      : 102
Overread into Lead-In and Lead-Out          : No
Fill up missing offset samples with silence : Yes
Delete leading and trailing silent blocks   : No
Null samples used in CRC calculations       : Yes
Used interface                              : Native Win32 interface for Win NT & 2000
Gap handling                                : Appended to previous track

Used output format              : User Defined Encoder
Selected bitrate                : 1024 kBit/s
Quality                         : High
Add ID3 tag                     : No
Command line compressor         : C:\Program Files (x86)\Exact Audio Copy\Flac\flac.exe
Additional command line options : -8 -V -T "ARTIST=%artist%" -T "TITLE=%title%" -T "ALBUM=%albumtitle%" -T "DATE=%year%" -T "TRACKNUMBER=%tracknr%" -T "GENRE=%genre%" -T "PERFORMER=%albuminterpret%" -T "COMPOSER=%composer%" %haslyrics%--tag-from-file=LYRICS="%lyricsfile%"%haslyrics% -T "ALBUMARTIST=%albumartist%" -T "DISCNUMBER=%cdnumber%" -T "TOTALDISCS=%totalcds%" -T "TOTALTRACKS=%numtracks%" -T "COMMENT=%comment%" %source% -o %dest%

TOC of the extracted CD

     Track |   Start  |  Length  | Start sector | End sector
    ---------------------------------------------------------
        1  |  0:00.00 |  2:18.17 |         0    |    10366
        2  |  2:18.17 |  3:12.11 |     10367    |    24777
        3  |  5:30.28 |  3:25.43 |     24778    |    40195
        4  |  8:55.71 |  4:12.38 |     40196    |    59133
        5  | 13:08.34 |  4:16.65 |     59134    |    78398
        6  | 17:25.24 |  3:22.14 |     78399    |    93562
        7  | 20:47.38 |  3:54.55 |     93563    |   111167
        8  | 24:42.18 |  3:02.56 |    111168    |   124873
        9  | 27:44.74 |  4:33.22 |    124874    |   145370
       10  | 32:18.21 |  6:23.08 |    145371    |   174103
       11  | 38:41.29 |  2:25.70 |    174104    |   185048
       12  | 41:07.24 |  2:43.74 |    185049    |   197347
       13  | 43:51.23 |  3:48.18 |    197348    |   214465
       14  | 47:39.41 |  2:44.06 |    214466    |   226771
       15  | 50:23.47 |  1:28.17 |    226772    |   233388
       16  | 51:51.64 |  3:37.69 |    233389    |   249732
       17  | 55:29.58 |  3:07.62 |    249733    |   263819
       18  | 58:37.45 |  4:27.64 |    263820    |   283908
       19  | 63:05.34 |  4:32.69 |    283909    |   304377

Track  1

     Filename D:\rip\brasil70\01. Secos And Molhados - Amor.wav

     Pre-gap length  0:00:02.00

     Peak level 77.6 %
     Extraction speed 1.2 X
     Track quality 100.0 %
     Test CRC 05BD3D48
     Copy CRC 05BD3D48
     Accurately ripped (confidence 6)  [D7C6BA90]  (AR v2)
     Copy OK

Track  2

     Filename D:\rip\brasil70\02. Alceu Valenca - Punhal De Prata.wav

     Pre-gap length  0:00:01.78

     Peak level 85.8 %
     Extraction speed 1.4 X
     Track quality 100.0 %
     Test CRC 13AAD3B4
     Copy CRC 13AAD3B4
     Accurately ripped (confidence 6)  [44D1028D]  (AR v2)
     Copy OK

Track  3

     Filename D:\rip\brasil70\03. Novos Baianos - Tinindo Trincando.wav

     Pre-gap length  0:00:01.92

     Peak level 96.6 %
     Extraction speed 1.6 X
     Track quality 100.0 %
     Test CRC C4552F35
     Copy CRC C4552F35
     Accurately ripped (confidence 6)  [6CFC47F1]  (AR v2)
     Copy OK

Track  4

     Filename D:\rip\brasil70\04. Jaime Alem And Nair De Candia - Passarã.wav

     Pre-gap length  0:00:01.89

     Peak level 97.2 %
     Extraction speed 1.7 X
     Track quality 100.0 %
     Test CRC 25CD34A0
     Copy CRC 25CD34A0
     Accurately ripped (confidence 6)  [448B4F00]  (AR v2)
     Copy OK

Track  5

     Filename D:\rip\brasil70\05. Tom Zé - Correio Da Estacão Do Brás.wav

     Pre-gap length  0:00:01.92

     Peak level 88.4 %
     Extraction speed 1.9 X
     Track quality 100.0 %
     Test CRC 8D5F2BFB
     Copy CRC 8D5F2BFB
     Accurately ripped (confidence 6)  [137DE9D0]  (AR v2)
     Copy OK

Track  6

     Filename D:\rip\brasil70\06. Gilberto Gil With Gal Costa - Sai Do Sereno.wav

     Pre-gap length  0:00:02.40

     Peak level 94.3 %
     Extraction speed 1.6 X
     Track quality 99.9 %
     Test CRC 32D8EC84
     Copy CRC 32D8EC84
     Accurately ripped (confidence 6)  [FD8A0BAF]  (AR v2)
     Copy OK

Track  7

     Filename D:\rip\brasil70\07. Raul Seixas - Mosca Na Sopa.wav

     Pre-gap length  0:00:02.70

     Peak level 86.2 %
     Extraction speed 1.8 X
     Track quality 99.9 %
     Test CRC 096A927C
     Copy CRC 096A927C
     Accurately ripped (confidence 6)  [ADBD13F6]  (AR v2)
     Copy OK

Track  8

     Filename D:\rip\brasil70\08. Erasmos Carlos - Mané João.wav

     Pre-gap length  0:00:03.49

     Peak level 88.3 %
     Extraction speed 2.1 X
     Track quality 100.0 %
     Test CRC 0EDB7A69
     Copy CRC 0EDB7A69
     Accurately ripped (confidence 6)  [DC5A0963]  (AR v2)
     Copy OK

Track  9

     Filename D:\rip\brasil70\09. Jards Macalé - Farinha Do Desprezo.wav

     Pre-gap length  0:00:02.53

     Peak level 89.1 %
     Extraction speed 2.3 X
     Track quality 100.0 %
     Test CRC 3376868F
     Copy CRC 3376868F
     Accurately ripped (confidence 6)  [E05C67F6]  (AR v2)
     Copy OK

Track 10

     Filename D:\rip\brasil70\10. Gilberto Gil - O Canto Da Ema.wav

     Pre-gap length  0:00:02.85

     Peak level 86.1 %
     Extraction speed 2.3 X
     Track quality 99.9 %
     Test CRC 90D7F777
     Copy CRC 90D7F777
     Accurately ripped (confidence 6)  [60592FB7]  (AR v2)
     Copy OK

Track 11

     Filename D:\rip\brasil70\11. Nelson Angelo Ejoyce - Vivo Ou Morto.wav

     Pre-gap length  0:00:03.26

     Peak level 96.2 %
     Extraction speed 2.3 X
     Track quality 100.0 %
     Test CRC 6AB83AF4
     Copy CRC 6AB83AF4
     Accurately ripped (confidence 6)  [62723AE1]  (AR v2)
     Copy OK

Track 12

     Filename D:\rip\brasil70\12. Gal Costa - Pontos De Luz.wav

     Pre-gap length  0:00:02.46

     Peak level 96.6 %
     Extraction speed 2.0 X
     Track quality 99.9 %
     Test CRC C8D868DA
     Copy CRC C8D868DA
     Accurately ripped (confidence 6)  [BA60BEF4]  (AR v2)
     Copy OK

Track 13

     Filename D:\rip\brasil70\13. Raul Seixas - As Aventuras De Raul Seixas Na Cidade De Thor.wav

     Pre-gap length  0:00:02.62

     Peak level 86.1 %
     Extraction speed 2.6 X
     Track quality 100.0 %
     Test CRC A9AE47AE
     Copy CRC A9AE47AE
     Accurately ripped (confidence 6)  [A205296F]  (AR v2)
     Copy OK

Track 14

     Filename D:\rip\brasil70\14. Nelson Angelo Ejoyce - Sete Cachorros.wav

     Pre-gap length  0:00:02.37

     Peak level 84.6 %
     Extraction speed 2.5 X
     Track quality 100.0 %
     Test CRC FA4208AA
     Copy CRC FA4208AA
     Accurately ripped (confidence 6)  [8491CE46]  (AR v2)
     Copy OK

Track 15

     Filename D:\rip\brasil70\15. Caetano Veloso - Jóia.wav

     Pre-gap length  0:00:01.46

     Peak level 89.8 %
     Extraction speed 2.1 X
     Track quality 100.0 %
     Test CRC A255BC75
     Copy CRC A255BC75
     Accurately ripped (confidence 6)  [D26D008C]  (AR v2)
     Copy OK

Track 16

     Filename D:\rip\brasil70\16. Rita Lee - Corista De Rock.wav

     Pre-gap length  0:00:02.72

     Peak level 86.1 %
     Extraction speed 2.7 X
     Track quality 100.0 %
     Test CRC 2820AC3B
     Copy CRC 2820AC3B
     Accurately ripped (confidence 5)  [01435669]  (AR v2)
     Copy OK

Track 17

     Filename D:\rip\brasil70\17. Ednardo E O Pessoal Do Ceará - Ingazeiras.wav

     Pre-gap length  0:00:02.38

     Peak level 85.7 %
     Extraction speed 2.7 X
     Track quality 100.0 %
     Test CRC 0B690CBF
     Copy CRC 0B690CBF
     Accurately ripped (confidence 5)  [C4850C5D]  (AR v2)
     Copy OK

Track 18

     Filename D:\rip\brasil70\18. Novos Baianos - America Tropical.wav

     Pre-gap length  0:00:03.44

     Peak level 72.4 %
     Extraction speed 2.9 X
     Track quality 100.0 %
     Test CRC EF3A07D4
     Copy CRC EF3A07D4
     Accurately ripped (confidence 5)  [4F39206F]  (AR v2)
     Copy OK

Track 19

     Filename D:\rip\brasil70\19. Mar Revolto - Contendas De Sincorá.wav

     Pre-gap length  0:00:02.74

     Peak level 86.1 %
     Extraction speed 2.7 X
     Track quality 99.9 %
     Test CRC 730ABF72
     Copy CRC 730ABF72
     Accurately ripped (confidence 4)  [729584A9]  (AR v2)
     Copy OK

All tracks accurately ripped

No errors occurred

End of status report

---- CUETools DB Plugin V2.1.6

[CTDB TOCID: C6hOukhKbYXXIIMvPH.zQb6xVzQ-] found
Submit result: C6hOukhKbYXXIIMvPH.zQb6xVzQ- has been confirmed
Track | CTDB Status
  1   | (14/14) Accurately ripped
  2   | (14/14) Accurately ripped
  3   | (14/14) Accurately ripped
  4   | (14/14) Accurately ripped
  5   | (14/14) Accurately ripped
  6   | (14/14) Accurately ripped
  7   | (14/14) Accurately ripped
  8   | (14/14) Accurately ripped
  9   | (14/14) Accurately ripped
 10   | (14/14) Accurately ripped
 11   | (14/14) Accurately ripped
 12   | (14/14) Accurately ripped
 13   | (14/14) Accurately ripped
 14   | (14/14) Accurately ripped
 15   | (14/14) Accurately ripped
 16   | (12/14) Accurately ripped
 17   | (12/14) Accurately ripped
 18   | (12/14) Accurately ripped
 19   | (12/14) Accurately ripped

==== Log checksum CC8592282A75FD89A7B1DB543F110EF625B30DF139339DDF8F66D64B148ED274 ====
Код: Выделить всё
REM GENRE Other
REM DATE 2007
REM DISCID 020FDA13
REM COMMENT "ExactAudioCopy v1.3"
PERFORMER "Various Artists"
TITLE "Brazil 70"
REM COMPOSER ""
FILE "01. Secos And Molhados - Amor.wav" WAVE
  TRACK 01 AUDIO
    TITLE "Amor"
    PERFORMER "Secos And Molhados"
    REM COMPOSER ""
    INDEX 01 00:00:00
  TRACK 02 AUDIO
    TITLE "Punhal De Prata"
    PERFORMER "Alceu Valenca"
    REM COMPOSER ""
    INDEX 00 02:16:33
FILE "02. Alceu Valenca - Punhal De Prata.wav" WAVE
    INDEX 01 00:00:00
  TRACK 03 AUDIO
    TITLE "Tinindo Trincando"
    PERFORMER "Novos Baianos"
    REM COMPOSER ""
    INDEX 00 03:10:17
FILE "03. Novos Baianos - Tinindo Trincando.wav" WAVE
    INDEX 01 00:00:00
  TRACK 04 AUDIO
    TITLE "Passarг"
    PERFORMER "Jaime Alem And Nair De Candia"
    REM COMPOSER ""
    INDEX 00 03:23:51
FILE "04. Jaime Alem And Nair De Candia - Passarг.wav" WAVE
    INDEX 01 00:00:00
  TRACK 05 AUDIO
    TITLE "Correio Da Estacгo Do Brбs"
    PERFORMER "Tom Zй"
    REM COMPOSER ""
    INDEX 00 04:10:44
FILE "05. Tom Zй - Correio Da Estacгo Do Brбs.wav" WAVE
    INDEX 01 00:00:00
  TRACK 06 AUDIO
    TITLE "Sai Do Sereno"
    PERFORMER "Gilberto Gil With Gal Costa"
    REM COMPOSER ""
    INDEX 00 04:14:35
FILE "06. Gilberto Gil With Gal Costa - Sai Do Sereno.wav" WAVE
    INDEX 01 00:00:00
  TRACK 07 AUDIO
    TITLE "Mosca Na Sopa"
    PERFORMER "Raul Seixas"
    REM COMPOSER ""
    INDEX 00 03:19:36
FILE "07. Raul Seixas - Mosca Na Sopa.wav" WAVE
    INDEX 01 00:00:00
  TRACK 08 AUDIO
    TITLE "Manй Joгo"
    PERFORMER "Erasmos Carlos"
    REM COMPOSER ""
    INDEX 00 03:51:18
FILE "08. Erasmos Carlos - Manй Joгo.wav" WAVE
    INDEX 01 00:00:00
  TRACK 09 AUDIO
    TITLE "Farinha Do Desprezo"
    PERFORMER "Jards Macalй"
    REM COMPOSER ""
    INDEX 00 03:00:16
FILE "09. Jards Macalй - Farinha Do Desprezo.wav" WAVE
    INDEX 01 00:00:00
  TRACK 10 AUDIO
    TITLE "O Canto Da Ema"
    PERFORMER "Gilberto Gil"
    REM COMPOSER ""
    INDEX 00 04:30:33
FILE "10. Gilberto Gil - O Canto Da Ema.wav" WAVE
    INDEX 01 00:00:00
  TRACK 11 AUDIO
    TITLE "Vivo Ou Morto"
    PERFORMER "Nelson Angelo Ejoyce"
    REM COMPOSER ""
    INDEX 00 06:19:63
FILE "11. Nelson Angelo Ejoyce - Vivo Ou Morto.wav" WAVE
    INDEX 01 00:00:00
  TRACK 12 AUDIO
    TITLE "Pontos De Luz"
    PERFORMER "Gal Costa"
    REM COMPOSER ""
    INDEX 00 02:23:35
FILE "12. Gal Costa - Pontos De Luz.wav" WAVE
    INDEX 01 00:00:00
  TRACK 13 AUDIO
    TITLE "As Aventuras De Raul Seixas Na Cidade De Thor"
    PERFORMER "Raul Seixas"
    REM COMPOSER ""
    INDEX 00 02:41:27
FILE "13. Raul Seixas - As Aventuras De Raul Seixas Na Cidade De Thor.wav" WAVE
    INDEX 01 00:00:00
  TRACK 14 AUDIO
    TITLE "Sete Cachorros"
    PERFORMER "Nelson Angelo Ejoyce"
    REM COMPOSER ""
    INDEX 00 03:45:65
FILE "14. Nelson Angelo Ejoyce - Sete Cachorros.wav" WAVE
    INDEX 01 00:00:00
  TRACK 15 AUDIO
    TITLE "Jуia"
    PERFORMER "Caetano Veloso"
    REM COMPOSER ""
    INDEX 00 02:42:46
FILE "15. Caetano Veloso - Jуia.wav" WAVE
    INDEX 01 00:00:00
  TRACK 16 AUDIO
    TITLE "Corista De Rock"
    PERFORMER "Rita Lee"
    REM COMPOSER ""
    INDEX 00 01:25:38
FILE "16. Rita Lee - Corista De Rock.wav" WAVE
    INDEX 01 00:00:00
  TRACK 17 AUDIO
    TITLE "Ingazeiras"
    PERFORMER "Ednardo E O Pessoal Do Cearб"
    REM COMPOSER ""
    INDEX 00 03:35:40
FILE "17. Ednardo E O Pessoal Do Cearб - Ingazeiras.wav" WAVE
    INDEX 01 00:00:00
  TRACK 18 AUDIO
    TITLE "America Tropical"
    PERFORMER "Novos Baianos"
    REM COMPOSER ""
    INDEX 00 03:04:29
FILE "18. Novos Baianos - America Tropical.wav" WAVE
    INDEX 01 00:00:00
  TRACK 19 AUDIO
    TITLE "Contendas De Sincorб"
    PERFORMER "Mar Revolto"
    REM COMPOSER ""
    INDEX 00 04:25:08
FILE "19. Mar Revolto - Contendas De Sincorб.wav" WAVE
    INDEX 01 00:00:00
Код: Выделить всё
-----------------------

DON'T MODIFY THIS FILE

-----------------------

PERFORMER: auCDtect Task Manager, ver. 1.6.0 RC1 build 1.6.0.1
Copyright (c) 2008-2010 y-soft. All rights reserved
[url=http://y-soft.org]http://y-soft.org[/url]

ANALYZER: auCDtect: CD records authenticity detector, version 0.8.2
Copyright (c) 2004 Oleg Berngardt. All rights reserved.
Copyright (c) 2004 Alexander Djourik. All rights reserved.

FILE: 14. Sete Cachorros.flac
  Size: 17842188 Hash: 019857DB422F21EB781B5E51827BA7EE Accuracy: -m0
  Conclusion: CDDA 100%
  Signature: 221FB082DA6B7D6DAAE05E81669F67FB68E926F6
FILE: 13. As Aventuras De Raul Seixas Na Cidade De Thor.flac
  Size: 25305241 Hash: A8A26898415D3D33B655F7863C38FF47 Accuracy: -m0
  Conclusion: CDDA 100%
  Signature: 3EA6100CE3370748A9FF7CCA3A48D0C67AB80599
FILE: 12. Pontos de Luz.flac
  Size: 18161154 Hash: D7CCD9F74E9F608B82E7934512604EF3 Accuracy: -m0
  Conclusion: CDDA 99%
  Signature: 09BA71352DB0BFF34B2A30EAA260DA80AA77F182
FILE: 11. Vivo ou Morto.flac
  Size: 14771623 Hash: CD8B87A6326F61C3CB36525A978B04A1 Accuracy: -m0
  Conclusion: CDDA 100%
  Signature: C617F9CAA385C8D60A82D81FC44F63D771289424
FILE: 10. O Canto da Ema.flac
  Size: 42506957 Hash: 7AF5E5B6680732A4C7750B44F1214B6D Accuracy: -m0
  Conclusion: CDDA 100%
  Signature: EE0A87F2A9885F793CB9BDA1B3191AD4D89A749A
FILE: 09. Farinha do Desprezo.flac
  Size: 28671660 Hash: 853F2DCA7E9E26458D5343AE0C3EF738 Accuracy: -m0
  Conclusion: CDDA 100%
  Signature: D277D87BAD214AE2067FE39E4B5630A8781076D4
FILE: 08. Mané João.flac
  Size: 19742829 Hash: 219DA9835CC4CDE2782B0EA79F931803 Accuracy: -m0
  Conclusion: CDDA 100%
  Signature: 198F4DEE635E0319CE954A5A90AA159D1C8FD3BE
FILE: 07. Mosca na Sopa.flac
  Size: 26883722 Hash: 0E16049BFA1880657A50D8CE37C90DF1 Accuracy: -m0
  Conclusion: CDDA 100%
  Signature: B8ABC4AC92AF52894AEAA069BF4BF328191FB0C9
FILE: 06. Sai do Sereno.flac
  Size: 21553838 Hash: BCC5776B300D52B546BD2495576BD176 Accuracy: -m0
  Conclusion: CDDA 100%
  Signature: 4BE9FD1093230CB85F9B749D78B878C9453F1788
FILE: 05. Correio da Estação do Brás.flac
  Size: 27103253 Hash: 77B7032FD1CC93BC7FA82905D738ACC3 Accuracy: -m0
  Conclusion: CDDA 100%
  Signature: F6EA0F7C12C80BAC8AFC2B932A33E22E66771EB3
FILE: 04. Passará.flac
  Size: 28897453 Hash: B854FC32CC73BB2CC7A013C11F46D7D0 Accuracy: -m0
  Conclusion: CDDA 100%
  Signature: 59AE21CCA6F2EC0C87FCB67433970A277AA2AC10
FILE: 03. Tinindo Trincando.flac
  Size: 23438503 Hash: DDD26EDDAAF6FFF47EB6184F0898B864 Accuracy: -m0
  Conclusion: CDDA 99%
  Signature: D7FAD3833DD60CFFFF83D37793C1CD897F92AD29
FILE: 02. Punhal de Prata.flac
  Size: 21135032 Hash: 02638DA805A2B0102C143ECF167EC18A Accuracy: -m0
  Conclusion: CDDA 100%
  Signature: 2AF3B801DF6725F515098CAA5382E985510D70E0
FILE: 01. Amor.flac
  Size: 16882521 Hash: 399D1CA8DEDF2DB0C7B8B562AAAB9EC0 Accuracy: -m0
  Conclusion: CDDA 100%
  Signature: 3A6D4934A919453C2057C299A197CF70B87D8DBD
FILE: 19. Contendas de Sincorá.flac
  Size: 32250485 Hash: 6B3682528888842AEF5684C527F8A3DD Accuracy: -m0
  Conclusion: CDDA 100%
  Signature: 54FE1133DC273358796352CF8F1F6E4595197A98
FILE: 18. América Tropical.flac
  Size: 31183378 Hash: 117507BAD6C5EE18FFF4D82C92DE7C67 Accuracy: -m0
  Conclusion: MPEG 95%
  Signature: 7E20566CF6E4D6BC0F612930519CA08E6FCE73B2
FILE: 17. Ingazeiras.flac
  Size: 21376849 Hash: 937B445841C398F367A5CBA9908859E0 Accuracy: -m0
  Conclusion: CDDA 100%
  Signature: 041166F084AF303979AF8918719ED47863DBACC9
FILE: 16. Corista de Rock.flac
  Size: 26715360 Hash: 9437A88F1D879B0F007B3E6A8D2E5601 Accuracy: -m0
  Conclusion: CDDA 100%
  Signature: 5142A43B7098EB030CA4679AE2EB7FE41A387CC1
FILE: 15. Jóia.flac
  Size: 8157150 Hash: 202BB728408B533FE382C3A4E6DAE1DD Accuracy: -m0
  Conclusion: CDDA 100%
  Signature: CD47E78B9E958E9C895A486A6F0544F6203AD323

#7
Код: Выделить всё
[b]Поглощение/вытеснение [/b]
[b]Только с согласия релизера[/b]
[b][u][i]Pashketan[/b][/i][/u]
Не забывайте говорить Спасибо. Не уходите с раздачи!   
Торрент: Зарегистрирован [07 сен 2018, 15:22] Для скачивания .torrent
необходима регистрация
Или скачать с помощью
MediaGet
Статус:
Проверен
 
.torrent скачан: 0 раз
Размер: 448.14 МБ (469 906 415 байт)
   Стать Автором раздачи
   
Цитата
  • Похожие торренты
    Ответы
    Просмотры
    Последнее сообщение

Вернуться в Music from other genres

Кто сейчас на конференции

Сейчас эту тему просматривают: нет зарегистрированных пользователей и гости: 1