Craig D'Andrea - Crazy Is Catching (2007) [FLAC|Lossless|tracks + .cue] <Folk, Guitar, Instrumental>

 Статистика раздачи 
Размер: 245.98 МБ   |  Зарегистрирован: 06 сен 2018, 20:51   |   .torrent скачан: 0 раз
Сидеров: 0  [ 0 байт/сек ]     Личеров: 0  [ 0 байт/сек ]  
  
Аватара пользователя
 
Раздал: 3.32 ТБ
Скачал: 63.48 ГБ
Ратио: 53.625
Сообщения: 196797
Стаж: 1 год 7 месяцев 21 день

Craig D'Andrea - Crazy Is Catching (2007)

Жанр: Folk, Guitar, Instrumental
Издание: Candyrat Records
Продолжительность: 00:40:40

Кодек: FLAC
Битрейт: Lossless
Тип рипа: tracks + .cue

Треклист:
01. Almost Gone, Barely Here (3:26)
02. In With The Purple And Out With The Blue (3:15)
03. And Then You Moved To Jersey (3:12)
04. I'm Not Funny... (4:11)
05. The Holiday (3:27)
06. Standing Still (4:35)
07. Two-Hundred Tour Buses (3:53)
08. Anyone's Everything (5:05)
09. Four Voices For Two Guitars (1:37)
10. Three Mile Bike Ride (4:04)
11. Day Man (3:56)

Код: Выделить всё
Exact Audio Copy V1.3 from 2. September 2016

EAC extraction logfile from 18. October 2017, 0:43

Craig D'Andrea / Getting Used To Isolation

Used drive  : PIONEER BD-RW   BDR-S08   Adapter: 1  ID: 0

Read mode               : Secure
Utilize accurate stream : Yes
Defeat audio cache      : Yes
Make use of C2 pointers : No

Read offset correction                      : 667
Overread into Lead-In and Lead-Out          : No
Fill up missing offset samples with silence : Yes
Delete leading and trailing silent blocks   : No
Null samples used in CRC calculations       : Yes
Used interface                              : Native Win32 interface for Win NT & 2000
Gap handling                                : Appended to previous track

Used output format              : User Defined Encoder
Selected bitrate                : 1024 kBit/s
Quality                         : High
Add ID3 tag                     : No
Command line compressor         : C:\Program Files (x86)\Exact Audio Copy\Flac\flac.exe
Additional command line options : -8 -e -V -T "ARTIST=%artist%" -T "TITLE=%title%" -T "ALBUM=%albumtitle%" -T "DATE=%year%" -T "TRACKNUMBER=%tracknr%" -T "GENRE=%genre%" -T "PERFORMER=%albuminterpret%" -T "COMPOSER=%composer%" %haslyrics%--tag-from-file=LYRICS="%lyricsfile%"%haslyrics% -T "ALBUMARTIST=%albumartist%" -T "DISCNUMBER=%cdnumber%" -T "DISCTOTAL=%totalcds%" -T "TRACKTOTAL=%numtracks%" -T "COMMENT=%comment%" %source% -o %dest%

TOC of the extracted CD

     Track |   Start  |  Length  | Start sector | End sector
    ---------------------------------------------------------
        1  |  0:00.00 |  3:25.66 |         0    |    15440
        2  |  3:25.66 |  3:14.46 |     15441    |    30036
        3  |  6:40.37 |  3:11.56 |     30037    |    44417
        4  |  9:52.18 |  4:11.36 |     44418    |    63278
        5  | 14:03.54 |  3:26.40 |     63279    |    78768
        6  | 17:30.19 |  4:34.61 |     78769    |    99379
        7  | 22:05.05 |  3:53.32 |     99380    |   116886
        8  | 25:58.37 |  5:04.54 |    116887    |   139740
        9  | 31:03.16 |  1:36.40 |    139741    |   146980
       10  | 32:39.56 |  4:04.19 |    146981    |   165299
       11  | 36:44.00 |  3:56.32 |    165300    |   183031

Track  1

     Filename D:\EAC RIP\01 - Almost Gone, Barely Here.wav

     Pre-gap length  0:00:02.00

     Peak level 91.4 %
     Extraction speed 4.6 X
     Track quality 100.0 %
     Test CRC 6B602FE2
     Copy CRC 6B602FE2
     Cannot be verified as accurate (confidence 1)  [FFC1E291], AccurateRip returned [BCC8F081]  (AR v2)
     Copy OK

Track  2

     Filename D:\EAC RIP\02 - In With The Purple And Out With The Blue.wav

     Pre-gap length  0:00:02.01

     Peak level 93.3 %
     Extraction speed 4.9 X
     Track quality 100.0 %
     Test CRC 09D6239A
     Copy CRC 09D6239A
     Cannot be verified as accurate (confidence 1)  [939D508F], AccurateRip returned [2791BE91]  (AR v2)
     Copy OK

Track  3

     Filename D:\EAC RIP\03 - And Then You Moved To Jersey.wav

     Pre-gap length  0:00:02.01

     Peak level 98.0 %
     Extraction speed 5.3 X
     Track quality 100.0 %
     Test CRC 3D53E868
     Copy CRC 3D53E868
     Cannot be verified as accurate (confidence 1)  [CBA9A267], AccurateRip returned [64156459]  (AR v2)
     Copy OK

Track  4

     Filename D:\EAC RIP\04 - I'm Not Funny....wav

     Pre-gap length  0:00:02.01

     Peak level 97.0 %
     Extraction speed 5.8 X
     Track quality 100.0 %
     Test CRC 9B98B5B2
     Copy CRC 9B98B5B2
     Cannot be verified as accurate (confidence 1)  [47D4E506], AccurateRip returned [D45EF57C]  (AR v2)
     Copy OK

Track  5

     Filename D:\EAC RIP\05 - The Holiday.wav

     Pre-gap length  0:00:02.01

     Peak level 96.7 %
     Extraction speed 5.9 X
     Track quality 100.0 %
     Test CRC B9FA047E
     Copy CRC B9FA047E
     Cannot be verified as accurate (confidence 1)  [1D969500], AccurateRip returned [2165CC1F]  (AR v2)
     Copy OK

Track  6

     Filename D:\EAC RIP\06 - Standing Still.wav

     Pre-gap length  0:00:02.01

     Peak level 100.0 %
     Extraction speed 6.6 X
     Track quality 100.0 %
     Test CRC 06D2C261
     Copy CRC 06D2C261
     Cannot be verified as accurate (confidence 1)  [0DAE2471], AccurateRip returned [13530169]  (AR v2)
     Copy OK

Track  7

     Filename D:\EAC RIP\07 - Two-Hundred Tour Buses.wav

     Pre-gap length  0:00:02.01

     Peak level 98.1 %
     Extraction speed 6.6 X
     Track quality 100.0 %
     Test CRC 3866F4BB
     Copy CRC 3866F4BB
     Cannot be verified as accurate (confidence 1)  [F7881D2B], AccurateRip returned [9071E0E3]  (AR v2)
     Copy OK

Track  8

     Filename D:\EAC RIP\08 - Anyone's Everything.wav

     Pre-gap length  0:00:02.01

     Peak level 97.8 %
     Extraction speed 7.2 X
     Track quality 100.0 %
     Test CRC E8147F58
     Copy CRC E8147F58
     Cannot be verified as accurate (confidence 1)  [BCE28FE8], AccurateRip returned [CCCD0E8E]  (AR v2)
     Copy OK

Track  9

     Filename D:\EAC RIP\09 - Four Voices For Two Guitars.wav

     Pre-gap length  0:00:02.01

     Peak level 87.3 %
     Extraction speed 6.1 X
     Track quality 100.0 %
     Test CRC B8445FDE
     Copy CRC B8445FDE
     Cannot be verified as accurate (confidence 1)  [4F3D7F7C], AccurateRip returned [07544CFB]  (AR v2)
     Copy OK

Track 10

     Filename D:\EAC RIP\10 - Three Mile Bike Ride.wav

     Pre-gap length  0:00:02.01

     Peak level 100.0 %
     Extraction speed 7.5 X
     Track quality 100.0 %
     Test CRC 6E5BBEC5
     Copy CRC 6E5BBEC5
     Cannot be verified as accurate (confidence 1)  [B7B0B51C], AccurateRip returned [E2078D2E]  (AR v2)
     Copy OK

Track 11

     Filename D:\EAC RIP\11 - Day Man.wav

     Pre-gap length  0:00:02.01

     Peak level 95.9 %
     Extraction speed 6.8 X
     Track quality 99.9 %
     Test CRC D69BD89F
     Copy CRC D69BD89F
     Cannot be verified as accurate (confidence 1)  [9CB1C8AD], AccurateRip returned [2DE04275]  (AR v2)
     Copy OK

No tracks could be verified as accurate
You may have a different pressing from the one(s) in the database

No errors occurred

End of status report

---- CUETools DB Plugin V2.1.6

[CTDB TOCID: RRAcnEaYrhvQd.NOsdIgSLpmuOo-] found
Submit result: RRAcnEaYrhvQd.NOsdIgSLpmuOo- has been confirmed
Track | CTDB Status
  1   | (2/2) Accurately ripped
  2   | (2/2) Accurately ripped
  3   | (2/2) Accurately ripped
  4   | (2/2) Accurately ripped
  5   | (2/2) Accurately ripped
  6   | (2/2) Accurately ripped
  7   | (2/2) Accurately ripped
  8   | (2/2) Accurately ripped
  9   | (2/2) Accurately ripped
 10   | (2/2) Accurately ripped
 11   | (2/2) Accurately ripped

==== Log checksum 97413E275BB733E39B9E292BD42270E676442AA1DA50D3F0A46FE0D0A92ACB8E ====
Код: Выделить всё
REM GENRE Acoustic
REM DATE 2009
REM DISCID 8409880B
REM COMMENT "ExactAudioCopy v1.3"
PERFORMER "Craig D'Andrea"
TITLE "Getting Used To Isolation"
REM COMPOSER ""
FILE "01 - Almost Gone, Barely Here.wav" WAVE
  TRACK 01 AUDIO
    TITLE "Almost Gone, Barely Here"
    PERFORMER "Craig D'Andrea"
    REM COMPOSER ""
    INDEX 01 00:00:00
  TRACK 02 AUDIO
    TITLE "In With The Purple And Out With The Blue"
    PERFORMER "Craig D'Andrea"
    REM COMPOSER ""
    INDEX 00 03:23:65
FILE "02 - In With The Purple And Out With The Blue.wav" WAVE
    INDEX 01 00:00:00
  TRACK 03 AUDIO
    TITLE "And Then You Moved To Jersey"
    PERFORMER "Craig D'Andrea"
    REM COMPOSER ""
    INDEX 00 03:12:45
FILE "03 - And Then You Moved To Jersey.wav" WAVE
    INDEX 01 00:00:00
  TRACK 04 AUDIO
    TITLE "I'm Not Funny..."
    PERFORMER "Craig D'Andrea"
    REM COMPOSER ""
    INDEX 00 03:09:55
FILE "04 - I'm Not Funny....wav" WAVE
    INDEX 01 00:00:00
  TRACK 05 AUDIO
    TITLE "The Holiday"
    PERFORMER "Craig D'Andrea"
    REM COMPOSER ""
    INDEX 00 04:09:35
FILE "05 - The Holiday.wav" WAVE
    INDEX 01 00:00:00
  TRACK 06 AUDIO
    TITLE "Standing Still"
    PERFORMER "Craig D'Andrea"
    REM COMPOSER ""
    INDEX 00 03:24:39
FILE "06 - Standing Still.wav" WAVE
    INDEX 01 00:00:00
  TRACK 07 AUDIO
    TITLE "Two-Hundred Tour Buses"
    PERFORMER "Craig D'Andrea"
    REM COMPOSER ""
    INDEX 00 04:32:60
FILE "07 - Two-Hundred Tour Buses.wav" WAVE
    INDEX 01 00:00:00
  TRACK 08 AUDIO
    TITLE "Anyone's Everything"
    PERFORMER "Craig D'Andrea"
    REM COMPOSER ""
    INDEX 00 03:51:31
FILE "08 - Anyone's Everything.wav" WAVE
    INDEX 01 00:00:00
  TRACK 09 AUDIO
    TITLE "Four Voices For Two Guitars"
    PERFORMER "Craig D'Andrea"
    REM COMPOSER ""
    INDEX 00 05:02:53
FILE "09 - Four Voices For Two Guitars.wav" WAVE
    INDEX 01 00:00:00
  TRACK 10 AUDIO
    TITLE "Three Mile Bike Ride"
    PERFORMER "Craig D'Andrea"
    REM COMPOSER ""
    INDEX 00 01:34:39
FILE "10 - Three Mile Bike Ride.wav" WAVE
    INDEX 01 00:00:00
  TRACK 11 AUDIO
    TITLE "Day Man"
    PERFORMER "Craig D'Andrea"
    REM COMPOSER ""
    INDEX 00 04:02:18
FILE "11 - Day Man.wav" WAVE
    INDEX 01 00:00:00
Код: Выделить всё
-----------------------

DON'T MODIFY THIS FILE

-----------------------

PERFORMER: auCDtect Task Manager, ver. 1.6.0 RC1 build 1.6.0.1
Copyright (c) 2008-2010 y-soft. All rights reserved
[url=http://y-soft.org]http://y-soft.org[/url]

ANALYZER: auCDtect: CD records authenticity detector, version 0.8.2
Copyright (c) 2004 Oleg Berngardt. All rights reserved.
Copyright (c) 2004 Alexander Djourik. All rights reserved.

FILE: 04. I'm Not Funny....flac
  Size: 23928823 Hash: 5D1B3EEC9E30DA3EEC7AE16DA4C9CCF5 Accuracy: -m0
  Conclusion: CDDA 99%
  Signature: F6D00E4935EEBB348904868221BD4CDCC7E387E9
FILE: 03. And Then You Moved To Jersey.flac
  Size: 17670892 Hash: A9786F8A75C01FABA8E280E088BA0E48 Accuracy: -m0
  Conclusion: CDDA 100%
  Signature: 241087193A0BB179D35448A89C09CD58F9D216F2
FILE: 02. In With The Purple And Out With The Blue.flac
  Size: 16286791 Hash: 772C47BED4E7FF1F5A4555233EB56CF4 Accuracy: -m0
  Conclusion: CDDA 100%
  Signature: F5F664C535B30F2CFFBEE76FABFB66DF11794AE7
FILE: 01. Almost Gone, Barely Here.flac
  Size: 19638217 Hash: 85C5AF34A182A59B7356AC08A17EE3A0 Accuracy: -m0
  Conclusion: CDDA 99%
  Signature: D5FB8709AE744E1E974061AAA37D1EEA3876C2F8
FILE: 11. Day Man.flac
  Size: 21109445 Hash: 62C86E58E1D41371E0E1EA74C0333EE8 Accuracy: -m0
  Conclusion: CDDA 100%
  Signature: FA2DCA916C1CD2CEC35D1A7D540FFB36BC165A0C
FILE: 10. Three Mile Bike Ride.flac
  Size: 22423193 Hash: EF4D3DE42F632C8BD0071F71DBB01441 Accuracy: -m0
  Conclusion: CDDA 100%
  Signature: 856FFB3D4EC47EB94073AD42D58A3601B41B5A48
FILE: 09. Four Voices For Two Guitars.flac
  Size: 9738623 Hash: 1001B7A9497EB87206B99C9B331CA334 Accuracy: -m0
  Conclusion: CDDA 100%
  Signature: 87A117E548B6D9710CF983A0AF2C580A780F7B51
FILE: 08. Anyone's Everything.flac
  Size: 26688089 Hash: E5E447AD2B79F65C18CF01720A70DCA4 Accuracy: -m0
  Conclusion: CDDA 100%
  Signature: 474093F1321B746998159F632A14C03F176E6476
FILE: 07. Two-Hundred Tour Buses.flac
  Size: 22084707 Hash: 3BF69F1F3F77638CBC8C4586F71BEA54 Accuracy: -m0
  Conclusion: CDDA 99%
  Signature: 8B196F01781525A6E7BA250A7562A96B89DB2FE6
FILE: 06. Standing Still.flac
  Size: 25264209 Hash: EDA745BCDCF1AFA78A9B345008168E56 Accuracy: -m0
  Conclusion: CDDA 100%
  Signature: D121415E6DFA22F669FEFF97F22849CB58BD32BF
FILE: 05. The Holiday.flac
  Size: 19520812 Hash: 0666CAA01B711958E312B2FB183BA417 Accuracy: -m0
  Conclusion: CDDA 100%
  Signature: 8925BA9EE42B0B69527BB94B1E5D9DC80EDBA3EC

#7
Код: Выделить всё
[b]Поглощение/вытеснение [/b]
[b]Только с согласия релизера[/b]
[b][u][i]Pashketan[/b][/i][/u]
Не забывайте говорить Спасибо. Не уходите с раздачи!   
Торрент: Зарегистрирован [06 сен 2018, 20:51] Для скачивания .torrent
необходима регистрация
Или скачать с помощью
MediaGet
Статус:
Проверен
 
.torrent скачан: 0 раз
Размер: 245.98 МБ (257 927 845 байт)
   Стать Автором раздачи
   
Цитата
  • Похожие торренты
    Ответы
    Просмотры
    Последнее сообщение

Вернуться в Music from other genres

Кто сейчас на конференции

Сейчас эту тему просматривают: нет зарегистрированных пользователей и гости: 1