Временные трудности (2017) WEB-DLRip

 Статистика раздачи 
Размер: 1.37 ГБ   |  Зарегистрирован: 13 окт 2018, 17:59   |   .torrent скачан: 0 раз
Сидеров: 0  [ 0 байт/сек ]     Личеров: 0  [ 0 байт/сек ]  
  
Аватара пользователя
Главный редактор
Главный редактор
Я на сайте
 
Раздал: 52.3 ТБ
Скачал: 2.55 ТБ
Ратио: 20.932
Сообщения: 145595
Стаж: 7 лет 11 месяцев 26 дней
Откуда: Санкт-Петербург
СообщениеДобавлено: 13 окт 2018, 17:59


Информация о фильме
Название: Временные трудности
Год выхода: 2017
Жанр: Драма, Мелодрама
Режиссер: Михаил Расходников
Продюсер: Георгий Малков, Владимир Поляков, Михаил Кучмент
Актеры: Иван Охлобыстин, Риналь Мухаметов, Виктория Соловьёва, Ян Цапник, Илья Рязанов, Ирина Пегова, Ирина Маликова, Николай Ковбас

Описание:
У Саши Ковалёва была врожденная болезнь. Отец мальчика выбрал, как ему казалось, единственно правильный способ поставить сына на ноги — относиться к нему как к здоровому человеку. «Ты не больной — у тебя временные трудности». Поесть, одеться, спуститься и подняться по лестнице подъезда — каждый день у ребенка уходили часы на то, чтобы справиться с простыми бытовыми задачами. В школе — издевательства сверстников. И помощи ждать было не от кого. Мальчик справился с болезнью, но возненавидел отца. Окончив школу, Саша уехал из дома и прекратил всякое общение с отцом. За 15 лет он стал лучшим бизнес-консультантом страны, который вывел из кризиса сотни бизнесов. «У вас не кризис — у вас временные трудности» — говорил своим клиентам прошедший тяжелый путь становления Александр. Но однажды новый заказ дает ему неожиданную возможность поквитаться с отцом.



Возраст: 12+ (зрителям, достигшим 12 лет)
Дата российской премьеры: 13 сентября 2018, «Централ Партнершип»

Производство: Россия, Enjoy Movies
Продолжительность: 01:23:25
Перевод: Не требуется (русский)
Субтитры: Отсутствуют

Файл
Качество видео: WEB-DLRip
Видео: XviD, 720x304 (2.35:1), 24.000 fps, 1 958 Kbps
Аудио: AC-3, 6 ch, 384 Kbps (Русский)

Фильм основан на реальной истории.

Фильм выиграл призы двух международных фестивалей: Гран-при на Oldenburg International Film Festival и Приз за лучший игровой фильм на Salento International Film Festival.

В рамках подготовки к своей роли Риналь Мухаметов посещал медико-реабилитационный центр заболеваний опорно-двигательного аппарата под руководством Валентина Дикуля. Там он общался с детьми с ДЦП, занимался на специальных тренажерах и перенимал специфическую пластику.

Специалист по заболеваниям опорно-двигательного аппарата Валентин Дикуль стал одним из консультантов фильма.
General
Complete name : Vremennye.trudnosti.2017.WEB-DLRip.XviD.NNMClub.avi
Format : AVI
Format/Info : Audio Video Interleave
File size : 1.37 GiB
Duration : 1 h 23 min
Overall bit rate : 2 351 kb/s
Writing application : Lavf58.12.100
Writing library : VirtualDub build 35491/release

Video
ID : 0
Format : MPEG-4 Visual
Format profile : Advanced Simple@L5
Format settings : BVOP2
Format settings, BVOP : 2
Format settings, QPel : No
Format settings, GMC : No warppoints
Format settings, Matrix : Default (MPEG)
Codec ID : XVID
Codec ID/Hint : XviD
Duration : 1 h 23 min
Bit rate : 1 958 kb/s
Width : 720 pixels
Height : 304 pixels
Display aspect ratio : 2.35:1
Frame rate : 24.000 FPS
Color space : YUV
Chroma subsampling : 4:2:0
Bit depth : 8 bits
Scan type : Progressive
Compression mode : Lossy
Bits/(Pixel*Frame) : 0.373
Stream size : 1.14 GiB (83%)
Writing library : XviD 67

Audio
ID : 1
Format : AC-3
Format/Info : Audio Coding 3
Commercial name : Dolby Digital
Codec ID : 2000
Duration : 1 h 23 min
Bit rate mode : Constant
Bit rate : 384 kb/s
Channel(s) : 6 channels
Channel layout : L R C LFE Ls Rs
Sampling rate : 48.0 kHz
Frame rate : 31.250 FPS (1536 SPF)
Bit depth : 16 bits
Compression mode : Lossy
Stream size : 229 MiB (16%)
Alignment : Aligned on interleaves
Interleave, duration : 42 ms (1.00 video frame)
Interleave, preload duratio : 512 ms
Service kind : Complete Main
Не забывайте говорить Спасибо. Не уходите с раздачи!   
Торрент: Зарегистрирован [13 окт 2018, 17:59] Для скачивания .torrent
необходима регистрация
Или скачать с помощью
MediaGet
Статус:
Проверен
 
.torrent скачан: 0 раз
Размер: 1.37 ГБ (1 470 831 858 байт)
   Стать Автором раздачи
   
Цитата
  • Похожие торренты
    Ответы
    Просмотры
    Последнее сообщение

Вернуться в Наше кино (Rips)

Кто сейчас на конференции

Сейчас эту тему просматривают: нет зарегистрированных пользователей и гости: 1