Милые обманщицы / Pretty Little Liars [S03] (2012-2013) WEB-DL 1080p | Sub

 Статистика раздачи 
Размер: 35.51 ГБ   |  Зарегистрирован: 13 окт 2018, 18:21   |   .torrent скачан: 0 раз
Сидеров: 1  [ 0 байт/сек ]     Личеров: 2  [ 0 байт/сек ]  
  
Аватара пользователя
Главный редактор
Главный редактор
 
Раздал: 52.3 ТБ
Скачал: 2.55 ТБ
Ратио: 20.932
Сообщения: 145431
Стаж: 7 лет 11 месяцев 24 дня
Откуда: Санкт-Петербург

Год выпуска: 2012-2013
Страна: США
Жанр: Драма, криминал, триллер
Продолжительность: 24 x ~ 00:44:00

Перевод: Субтитры (Русские)

Режиссёр: Рон Лагомарзино
В ролях: Тройэн Эвери Беллисарио, Эшли Бенсон, Холли Мэри Комбс, Люси Хейл, Иэн Хардинг, Бьянка Лоусон, Лора Лейтон, Чад Лоу, Шэй Митчелл, Таммин Сурсок, Саша Питерс, Коннор Триннир

Описание: Сериал рассказывает о четырёх девушках — Спенсер, Ханне, Арии и Эмили, дружба которых прекратилась после исчезновения их общей лучшей подруги Элисон. Спустя год после её исчезновения, девушки начинают получать загадочные сообщения от анонима «A», который знает все их секреты — включая те, которые знала только Элисон — и угрожает их раскрытием. Но Элисон мертва. Кто же отправляет эти сообщения?



Качество: WEB-DL 1080p
Контейнер: MKV
Видео: MPEG-4 AVC, ~ 5000 kbps avg, 1920x1080, 23.976 fps
Аудио: [Английский] 48 kHz, AC3, 5.1 ch, ~384 kbps avg
Субтитры: Русские (Full), английские (SDH)
Реклама: Отсутствует

Релиз TeamHD - BenderBEST
Общее
Уникальный идентификатор : 146934799790265306641244957868084003067 (0x6E8A9CF2BC7C23803E24BBE5ADB980FB)
Полное имя : S:Pretty.Little.Liars.S03.1080p.WEB-DL.Rus.Eng_THDPretty.Little.Liars.S03E16.Misery.Loves.Company.1080p.WEB-DL.Rus.Eng_THD.mkv
Формат : Matroska
Версия формата : Version 4 / Version 2
Размер файла : 1,40 Гбайт
Продолжительность : 43 м.
Режим общего битрейта : Переменный
Общий поток : 4602 Кбит/сек
Дата кодирования : UTC 2018-07-01 01:10:40
Программа кодирования : mkvmerge v24.0.0 ('Beyond The Pale') 64-bit
Библиотека кодирования : libebml v1.3.6 + libmatroska v1.4.9

Видео
Идентификатор : 1
Формат : AVC
Формат/Информация : Advanced Video Codec
Профиль формата : Main@L4
Параметр CABAC формата : Да
Параметр ReFrames формата : 3 кадра
Идентификатор кодека : V_MPEG4/ISO/AVC
Продолжительность : 43 м.
Вид битрейта : Переменный
Битрейт : 4220 Кбит/сек
Максимальный битрейт : 6330 Кбит/сек
Ширина : 1920 пикселей
Высота : 1080 пикселей
Соотношение сторон : 16:9
Режим частоты кадров : Постоянный
Частота кадров : 23,976 (24000/1001) кадра/сек
Цветовое пространство : YUV
Субдискретизация насыщенности : 4:2:0
Битовая глубина : 8 бит
Тип развёртки : Прогрессивная
Бит/(Пиксели*Кадры) : 0.085
Размер потока : 1,28 Гбайт (92%)
Библиотека кодирования : x264 core 118
Настройки программы : cabac=1 / ref=3 / deblock=1:0:0 / analyse=0x1:0x111 / me=umh / subme=10 / psy=1 / psy_rd=1.00:0.00 / mixed_ref=1 / me_range=24 / chroma_me=1 / trellis=2 / 8x8dct=0 / cqm=0 / deadzone=21,11 / fast_pskip=1 / chroma_qp_offset=-2 / threads=8 / sliced_threads=0 / nr=0 / decimate=1 / interlaced=0 / bluray_compat=0 / constrained_intra=0 / bframes=2 / b_pyramid=0 / b_adapt=2 / b_bias=0 / direct=3 / weightb=1 / open_gop=0 / weightp=2 / keyint=48 / keyint_min=25 / scenecut=0 / intra_refresh=0 / rc_lookahead=0 / rc=2pass / mbtree=1 / bitrate=4220 / ratetol=1.0 / qcomp=0.50 / qpmin=6 / qpmax=51 / qpstep=4 / cplxblur=20.0 / qblur=0.5 / vbv_maxrate=6330 / vbv_bufsize=8440 / nal_hrd=vbr / ip_ratio=1.40 / aq=1:1.00
Default : Да
Forced : Нет

Аудио
Идентификатор : 2
Формат : AC-3
Формат/Информация : Audio Coding 3
Расширение режима : CM (complete main)
Параметр Endianness формата : Big
Идентификатор кодека : A_AC3
Продолжительность : 43 м.
Вид битрейта : Постоянный
Битрейт : 384 Кбит/сек
Каналы : 6 каналов
Расположение каналов : Front: L C R, Side: L R, LFE
Частота : 48,0 КГц
Частота кадров : 31,250 кадров/сек (1536 spf)
Метод сжатия : С потерями
Размер потока : 120 Мбайт (8%)
Заголовок : English
Язык : English
Default : Да
Forced : Нет

Текст #1
Идентификатор : 3
Формат : UTF-8
Идентификатор кодека : S_TEXT/UTF8
Идентификатор кодека/Информация : UTF-8 Plain Text
Продолжительность : 41 м.
Битрейт : 57 бит/сек
Count of elements : 483
Размер потока : 17,5 Кбайт (0%)
Заголовок : SDH
Язык : English
Default : Да
Forced : Нет

Текст #2
Идентификатор : 4
Формат : UTF-8
Идентификатор кодека : S_TEXT/UTF8
Идентификатор кодека/Информация : UTF-8 Plain Text
Продолжительность : 41 м.
Битрейт : 93 бит/сек
Count of elements : 434
Размер потока : 28,6 Кбайт (0%)
Язык : Russian
Default : Нет
Forced : Нет


Не забывайте говорить Спасибо. Не уходите с раздачи!   
Торрент: Зарегистрирован [13 окт 2018, 18:21] Для скачивания .torrent
необходима регистрация
Или скачать с помощью
MediaGet
Статус:
Проверен
 
.torrent скачан: 0 раз
Размер: 35.51 ГБ (38 127 531 558 байт)
   Стать Автором раздачи
   
Цитата

Вернуться в Mилые обманщицы / Pretty Little Liars

Кто сейчас на конференции

Сейчас эту тему просматривают: нет зарегистрированных пользователей и гости: 1