Милые обманщицы / Pretty Little Liars [S01] (2010-2011) WEB-DL 1080p | MTV

 Статистика раздачи 
Размер: 38.86 ГБ   |  Зарегистрирован: 13 окт 2018, 18:18   |   .torrent скачан: 4 раз
Сидеров: 7  [ 0 байт/сек ]     Личеров: 10  [ 0 байт/сек ]  
  
Аватара пользователя
Главный редактор
Главный редактор
 
Раздал: 52.3 ТБ
Скачал: 2.55 ТБ
Ратио: 20.932
Сообщения: 145431
Стаж: 7 лет 11 месяцев 24 дня
Откуда: Санкт-Петербург

Год выпуска: 2010-2011
Страна: США
Жанр: Драма, криминал, триллер
Продолжительность: 22 x ~ 00:44:00

Перевод: Профессиональный (дублированный) MTV

Режиссёр: Рон Лагомарзино
В ролях: Тройэн Эвери Беллисарио, Эшли Бенсон, Холли Мэри Комбс, Люси Хейл, Иэн Хардинг, Бьянка Лоусон, Лора Лейтон, Чад Лоу, Шэй Митчелл, Таммин Сурсок, Саша Питерс, Коннор Триннир

Описание: Сериал рассказывает о четырёх девушках — Спенсер, Ханне, Арии и Эмили, дружба которых прекратилась после исчезновения их общей лучшей подруги Элисон. Спустя год после её исчезновения, девушки начинают получать загадочные сообщения от анонима «A», который знает все их секреты — включая те, которые знала только Элисон — и угрожает их раскрытием. Но Элисон мертва. Кто же отправляет эти сообщения?



Качество: WEB-DL 1080p
Контейнер: MKV
Видео: MPEG-4 AVC, ~ 6000 kbps avg, 1920x1080, 23.976 fps
Аудио 1: [Русский] 48 kHz, AAC, 2.0 ch, ~96 kbps avg |Дубляж, MTV|
Аудио 2: [Английский] 48 kHz, AC3, 5.1 ch, ~384 kbps avg
Субтитры: Русские (Full), английские (SDH)
Реклама: Отсутствует

Релиз TeamHD - BenderBEST
Общее
Уникальный идентификатор : 49176139064306558758341778170390176873 (0x24FEFAD93D9DF8F422EA35117AEEE469)
Полное имя : S:Pretty.Little.Liars.S01.1080p.WEB-DL.Rus.Eng_THDPretty.Little.Liars.S01E01.Pilot.1080p.WEB-DL.Rus.Eng_THD.mkv
Формат : Matroska
Версия формата : Version 4 / Version 2
Размер файла : 2,48 Гбайт
Продолжительность : 44 м.
Режим общего битрейта : Переменный
Общий поток : 7969 Кбит/сек
Дата кодирования : UTC 2018-06-30 23:49:23
Программа кодирования : mkvmerge v24.0.0 ('Beyond The Pale') 64-bit
Библиотека кодирования : libebml v1.3.6 + libmatroska v1.4.9

Видео
Идентификатор : 1
Формат : AVC
Формат/Информация : Advanced Video Codec
Профиль формата : Main@L4
Параметр CABAC формата : Да
Параметр ReFrames формата : 3 кадра
Идентификатор кодека : V_MPEG4/ISO/AVC
Продолжительность : 44 м.
Вид битрейта : Переменный
Битрейт : 7500 Кбит/сек
Максимальный битрейт : 11,2 Мбит/сек
Ширина : 1920 пикселей
Высота : 1080 пикселей
Соотношение сторон : 16:9
Режим частоты кадров : Постоянный
Частота кадров : 23,976 (24000/1001) кадра/сек
Цветовое пространство : YUV
Субдискретизация насыщенности : 4:2:0
Битовая глубина : 8 бит
Тип развёртки : Прогрессивная
Бит/(Пиксели*Кадры) : 0.151
Размер потока : 2,33 Гбайт (94%)
Библиотека кодирования : x264 core 118
Настройки программы : cabac=1 / ref=3 / deblock=1:0:0 / analyse=0x1:0x111 / me=umh / subme=10 / psy=1 / psy_rd=1.00:0.00 / mixed_ref=1 / me_range=24 / chroma_me=1 / trellis=2 / 8x8dct=0 / cqm=0 / deadzone=21,11 / fast_pskip=1 / chroma_qp_offset=-2 / threads=6 / sliced_threads=0 / nr=0 / decimate=1 / interlaced=0 / bluray_compat=0 / constrained_intra=0 / bframes=2 / b_pyramid=0 / b_adapt=2 / b_bias=0 / direct=3 / weightb=1 / open_gop=0 / weightp=2 / keyint=48 / keyint_min=25 / scenecut=0 / intra_refresh=0 / rc_lookahead=0 / rc=2pass / mbtree=1 / bitrate=7500 / ratetol=1.0 / qcomp=0.50 / qpmin=6 / qpmax=51 / qpstep=4 / cplxblur=20.0 / qblur=0.5 / vbv_maxrate=11250 / vbv_bufsize=15000 / nal_hrd=vbr / ip_ratio=1.40 / aq=1:1.00
Default : Да
Forced : Нет

Аудио #1
Идентификатор : 2
Формат : AAC
Формат/Информация : Advanced Audio Codec
Профиль формата : HE-AAC / LC
Идентификатор кодека : A_AAC
Продолжительность : 44 м.
Битрейт : 96,0 Кбит/сек
Каналы : 2 канала
Расположение каналов : Front: L R
Частота : 48,0 КГц / 24,0 КГц
Частота кадров : 23,438 кадра/сек (1024 spf)
Метод сжатия : С потерями
Размер потока : 30,6 Мбайт (1%)
Язык : Russian
Default : Да
Forced : Нет

Аудио #2
Идентификатор : 3
Формат : AC-3
Формат/Информация : Audio Coding 3
Расширение режима : CM (complete main)
Параметр Endianness формата : Big
Идентификатор кодека : A_AC3
Продолжительность : 44 м.
Вид битрейта : Постоянный
Битрейт : 384 Кбит/сек
Каналы : 6 каналов
Расположение каналов : Front: L C R, Side: L R, LFE
Частота : 48,0 КГц
Частота кадров : 31,250 кадров/сек (1536 spf)
Метод сжатия : С потерями
Размер потока : 122 Мбайт (5%)
Заголовок : English
Язык : English
Default : Нет
Forced : Нет

Текст #1
Идентификатор : 4
Формат : UTF-8
Идентификатор кодека : S_TEXT/UTF8
Идентификатор кодека/Информация : UTF-8 Plain Text
Продолжительность : 43 м.
Битрейт : 54 бит/сек
Count of elements : 553
Размер потока : 17,4 Кбайт (0%)
Заголовок : SDH
Язык : English
Default : Да
Forced : Нет

Текст #2
Идентификатор : 5
Формат : UTF-8
Идентификатор кодека : S_TEXT/UTF8
Идентификатор кодека/Информация : UTF-8 Plain Text
Продолжительность : 43 м.
Битрейт : 87 бит/сек
Count of elements : 500
Размер потока : 27,8 Кбайт (0%)
Язык : Russian
Default : Нет
Forced : Нет

Не забывайте говорить Спасибо. Не уходите с раздачи!   
Торрент: Зарегистрирован [13 окт 2018, 18:18] Для скачивания .torrent
необходима регистрация
Или скачать с помощью
MediaGet
Статус:
Проверен
 
.torrent скачан: 4 раз
Размер: 38.86 ГБ (41 725 876 490 байт)
   Стать Автором раздачи
   
Цитата

Вернуться в Mилые обманщицы / Pretty Little Liars

Кто сейчас на конференции

Сейчас эту тему просматривают: нет зарегистрированных пользователей и гости: 1