Счастья! Здоровья! (2018) WEB-DLRip от GeneralFilm | iTunes

 Статистика раздачи 
Размер: 1.46 ГБ   |  Зарегистрирован: 13 окт 2018, 16:56   |   .torrent скачан: 1838 раз
Сидеров: 326  [ 0 байт/сек ]     Личеров: 18  [ 0 байт/сек ]  
  
Аватара пользователя
Главный редактор
Главный редактор
Я на сайте
 
Раздал: 53.86 ТБ
Скачал: 2.6 ТБ
Ратио: 21.163
Сообщения: 158187
Стаж: 8 лет 23 дня
Откуда: Санкт-Петербург

Информация о фильме
Название: Счастья! Здоровья!
Год выхода: 2018
Жанр: Комедия
Режиссер: Марк Горобец, Арман Марутян, Леонид Марголин
В ролях: Зоя Бербер, Камиль Ларин, Марина Федункив, Сергей Аброскин, Наталья Рудова, Грант Тохатян, Даниил Вахрушев, Олег Верещагин, Дарья Пынзарь, Стася Милославская

О фильме:
Три влюблённые пары — татарская, армянская и русская — готовятся сыграть свадьбы. Но выясняется, что для Рината и Гузельки свадьба — это способ добыть деньги, чтобы вернуть дорогую скрипку, для отца Артура важнее всего, чтобы свадьба его сына и москвички-Юли прошла в Армении, а у Светы есть «скелет в шкафу» — её «бывший» Андрей в день свадьбы с Олегом вышел из тюрьмы. Зато гости отрываются от души, а у зрителей фильма «Счастья! Здоровья!» есть уникальная возможность побывать сразу на трёх свадьбах. Тосты и конкурсы, песни и танцы, поцелуи и… драки — что за свадьба без драки?! Это бомбически круто и нереально смешно. Три свадьбы, три пары — такие разные, такие непохожие. Но любовь объединяет, а гости от души желают: «Счастья! Здоровья!»



Страна: Россия
Студия: «Fresh Film»
Продолжительность: 01:23:52
Перевод: Не требуется | iTunes
Субтитры: нет

Файл
Формат: avi
Качество: WEB-DLRip
Видео: XviD build 73, 720x304 (2.35:1), 24.000 fps, 2091 Kbps (0.398 bit/pixel)
Звук: 48.0 kHz, AC3, 5/1 ch, 384 kbps

General
Complete name : D:RazdachiSchastja.Zdorovija.2018.XviD.WEB-DLRip.GeneralFilm.avi
Format : AVI
Format/Info : Audio Video Interleave
File size : 1.46 GiB
Duration : 1 h 23 min
Overall bit rate : 2 484 kb/s
Writing application : VirtualDubMod 1.5.10.3 | www.virtualdub-fr.org || (build 2550/release)
Writing library : VirtualDubMod build 2550/release

Video
ID : 0
Format : MPEG-4 Visual
Format profile : Advanced Simple@L5
Format settings, BVOP : 1
Format settings, QPel : No
Format settings, GMC : No warppoints
Format settings, Matrix : Custom
Codec ID : XVID
Codec ID/Hint : XviD
Duration : 1 h 23 min
Bit rate : 2 091 kb/s
Width : 720 pixels
Height : 304 pixels
Display aspect ratio : 2.35:1
Frame rate : 24.000 FPS
Color space : YUV
Chroma subsampling : 4:2:0
Bit depth : 8 bits
Scan type : Progressive
Compression mode : Lossy
Bits/(Pixel*Frame) : 0.398
Stream size : 1.22 GiB (84%)
Writing library : XviD 73

Audio
ID : 1
Format : AC-3
Format/Info : Audio Coding 3
Format settings, Endianness : Big
Codec ID : 2000
Duration : 1 h 23 min
Bit rate mode : Constant
Bit rate : 384 kb/s
Channel(s) : 6 channels
Channel positions : Front: L C R, Side: L R, LFE
Sampling rate : 48.0 kHz
Frame rate : 31.250 FPS (1536 SPF)
Bit depth : 16 bits
Compression mode : Lossy
Stream size : 230 MiB (15%)
Alignment : Split accross interleaves
Interleave, duration : 42 ms (1.00 video frame)
Interleave, preload duratio : 500 ms
Service kind : Complete Main

Релиз от:
Не забывайте говорить Спасибо. Не уходите с раздачи!   
Торрент: Зарегистрирован [13 окт 2018, 16:56] Для скачивания .torrent
необходима регистрация
Или скачать с помощью
MediaGet
Статус:
Проверен
 
.torrent скачан: 1838 раз
Хэш: 251e3f0831d064d704f278c3ce62b7d1d0b80bec
Размер: 1.46 ГБ (1 562 347 520 байт)
   Стать Автором раздачи
   
Цитата
  • Похожие торренты
    Ответы
    Просмотры
    Последнее сообщение

Вернуться в Наше кино (Rips)

Кто сейчас на конференции

Сейчас эту тему просматривают: нет зарегистрированных пользователей и гости: 1