Monoceros - Tales For Silent Nights (2007) Fueradeserie! [FLAC|Lossless|tracks+.cue] <IDM, Downtempo, Ambient>

 Статистика раздачи 
Размер: 323.73 МБ   |  Зарегистрирован: 06 окт 2018, 07:02   |   .torrent скачан: 0 раз
Сидеров: 0  [ 0 байт/сек ]     Личеров: 0  [ 0 байт/сек ]  
  
Аватара пользователя
Я на сайте
 
Раздал: 3.13 ТБ
Скачал: 38.27 ГБ
Ратио: 83.834
Сообщения: 189248
Стаж: 1 год 6 месяцев 27 дней

Monoceros
Tales For Silent Nights
Жанр: IDM, Downtempo, Ambient
Издание: Fueradeserie! - fds! cd 08
Продолжительность: 00:50:26

Кодек: FLAC
Битрейт: Lossless
Тип рипа: tracks+.cue

Треклист:


01. The Day We Become One (06:31)
02. << (The Big Wave) (04:29)
03. Warm (07:09)
04. Depression And Vortex At Jan Mayen (04:23)
05. Background Birds (04:33)
06. Northern Lights (03:44)
07. Off (Tales) (03:53)
08. Tales For Silent Nights (05:55)
09. Little Pieces (04:33)
10. Happiness (05:16)
Код: Выделить всё
Exact Audio Copy V0.99 prebeta 5 from 4. May 2009

EAC extraction logfile from 26. October 2009, 12:39

Monoceros / Tales For Silent Nights

Used drive  : HL-DT-STDVDRAM GMA-4082N   Adapter: 0  ID: 0

Read mode               : Secure
Utilize accurate stream : Yes
Defeat audio cache      : Yes
Make use of C2 pointers : No

Read offset correction                      : 667
Overread into Lead-In and Lead-Out          : No
Fill up missing offset samples with silence : Yes
Delete leading and trailing silent blocks   : No
Null samples used in CRC calculations       : Yes
Used interface                              : Installed external ASPI interface
Gap handling                                : Appended to previous track

Used output format              : User Defined Encoder
Selected bitrate                : 320 kBit/s
Quality                         : High
Add ID3 tag                     : No
Command line compressor         : C:\Program Files\Exact Audio Copy\FLAC\FLAC.EXE
Additional command line options : -V -8 -T "artist=%a" -T "title=%t" -T "album=%g" -T "date=%y" -T "tracknumber=%n" -T "genre=%m" %s

TOC of the extracted CD

     Track |   Start  |  Length  | Start sector | End sector
    ---------------------------------------------------------
        1  |  0:00.00 |  6:30.62 |         0    |    29311
        2  |  6:30.62 |  4:29.35 |     29312    |    49521
        3  | 11:00.22 |  7:08.55 |     49522    |    81676
        4  | 18:09.02 |  4:23.34 |     81677    |   101435
        5  | 22:32.36 |  4:32.52 |    101436    |   121887
        6  | 27:05.13 |  3:44.18 |    121888    |   138705
        7  | 30:49.31 |  3:53.20 |    138706    |   156200
        8  | 34:42.51 |  5:54.46 |    156201    |   182796
        9  | 40:37.22 |  4:33.01 |    182797    |   203272
       10  | 45:10.23 |  5:16.21 |    203273    |   226993

Track  1

     Filename G:\1_My Music\VUZE Uploads\Monoceros - 2007 - Tales For Silent Nights\01 - The Day We Become One.wav

     Pre-gap length  0:00:02.00

     Peak level 89.1 %
     Track quality 99.9 %
     Test CRC A009E8EE
     Copy CRC A009E8EE
     Accurately ripped (confidence 1)  [36BE6608]
     Copy OK

Track  2

     Filename G:\1_My Music\VUZE Uploads\Monoceros - 2007 - Tales For Silent Nights\02 - [[ (The Big Wave).wav

     Peak level 89.1 %
     Track quality 100.0 %
     Test CRC 67633508
     Copy CRC 67633508
     Accurately ripped (confidence 1)  [7700CAC5]
     Copy OK

Track  3

     Filename G:\1_My Music\VUZE Uploads\Monoceros - 2007 - Tales For Silent Nights\03 - Warm.wav

     Peak level 89.1 %
     Track quality 100.0 %
     Test CRC 086204EE
     Copy CRC 086204EE
     Accurately ripped (confidence 1)  [B806B0DA]
     Copy OK

Track  4

     Filename G:\1_My Music\VUZE Uploads\Monoceros - 2007 - Tales For Silent Nights\04 - Depression and Vortex at Jan Mayen.wav

     Peak level 89.1 %
     Track quality 100.0 %
     Test CRC 41006B1C
     Copy CRC 41006B1C
     Accurately ripped (confidence 1)  [8D126E7A]
     Copy OK

Track  5

     Filename G:\1_My Music\VUZE Uploads\Monoceros - 2007 - Tales For Silent Nights\05 - Background Birds.wav

     Peak level 89.1 %
     Track quality 100.0 %
     Test CRC FE5C296E
     Copy CRC FE5C296E
     Accurately ripped (confidence 1)  [382B1524]
     Copy OK

Track  6

     Filename G:\1_My Music\VUZE Uploads\Monoceros - 2007 - Tales For Silent Nights\06 - Northern Lights.wav

     Peak level 89.1 %
     Track quality 100.0 %
     Test CRC 33FCF80A
     Copy CRC 33FCF80A
     Accurately ripped (confidence 1)  [B0A1F666]
     Copy OK

Track  7

     Filename G:\1_My Music\VUZE Uploads\Monoceros - 2007 - Tales For Silent Nights\07 - Off (tales).wav

     Peak level 89.1 %
     Track quality 100.0 %
     Test CRC 69CE2918
     Copy CRC 69CE2918
     Accurately ripped (confidence 1)  [68D71F78]
     Copy OK

Track  8

     Filename G:\1_My Music\VUZE Uploads\Monoceros - 2007 - Tales For Silent Nights\08 - Tales for Silent Nights.wav

     Peak level 89.1 %
     Track quality 100.0 %
     Test CRC 18497710
     Copy CRC 18497710
     Accurately ripped (confidence 1)  [7158E72F]
     Copy OK

Track  9

     Filename G:\1_My Music\VUZE Uploads\Monoceros - 2007 - Tales For Silent Nights\09 - Little Pieces.wav

     Peak level 89.1 %
     Track quality 100.0 %
     Test CRC C92A75AD
     Copy CRC C92A75AD
     Accurately ripped (confidence 1)  [7CB8240A]
     Copy OK

Track 10

     Filename G:\1_My Music\VUZE Uploads\Monoceros - 2007 - Tales For Silent Nights\10 - Happiness.wav

     Peak level 89.1 %
     Track quality 100.0 %
     Test CRC BA42CDC5
     Copy CRC BA42CDC5
     Accurately ripped (confidence 1)  [AAEBCDA7]
     Copy OK

All tracks accurately ripped

No errors occurred

End of status report
Код: Выделить всё
REM GENRE IDM
REM DATE 2007
REM DISCID 810BD20A
REM COMMENT "ExactAudioCopy v0.99pb5"
PERFORMER Monoceros
TITLE "Tales For Silent Nights"
FILE "01. The Day We Become One.wav" WAVE
  TRACK 1 AUDIO
    TITLE "The Day We Become One"
    PERFORMER Monoceros
    INDEX 01 00:00:00
FILE "02. -- (The Big Wave).wav" WAVE
  TRACK 2 AUDIO
    TITLE "<< (The Big Wave)"
    PERFORMER Monoceros
    INDEX 01 00:00:00
FILE "03. Warm.wav" WAVE
  TRACK 3 AUDIO
    TITLE Warm
    PERFORMER Monoceros
    INDEX 01 00:00:00
FILE "04. Depression And Vortex At Jan Mayen.wav" WAVE
  TRACK 4 AUDIO
    TITLE "Depression And Vortex At Jan Mayen"
    PERFORMER Monoceros
    INDEX 01 00:00:00
FILE "05. Background Birds.wav" WAVE
  TRACK 5 AUDIO
    TITLE "Background Birds"
    PERFORMER Monoceros
    INDEX 01 00:00:00
FILE "06. Northern Lights.wav" WAVE
  TRACK 6 AUDIO
    TITLE "Northern Lights"
    PERFORMER Monoceros
    INDEX 01 00:00:00
FILE "07. Off (Tales).wav" WAVE
  TRACK 7 AUDIO
    TITLE "Off (Tales)"
    PERFORMER Monoceros
    INDEX 01 00:00:00
FILE "08. Tales For Silent Nights.wav" WAVE
  TRACK 8 AUDIO
    TITLE "Tales For Silent Nights"
    PERFORMER Monoceros
    INDEX 01 00:00:00
FILE "09. Little Pieces.wav" WAVE
  TRACK 9 AUDIO
    TITLE "Little Pieces"
    PERFORMER Monoceros
    INDEX 01 00:00:00
FILE "10. Happiness.wav" WAVE
  TRACK 10 AUDIO
    TITLE Happiness
    PERFORMER Monoceros
    INDEX 01 00:00:00
Время раздачи: 12/7
Не забывайте говорить Спасибо. Не уходите с раздачи!   
Торрент: Зарегистрирован [06 окт 2018, 07:02] Для скачивания .torrent
необходима регистрация
Или скачать с помощью
MediaGet
Статус:
Проверен
 
.torrent скачан: 0 раз
Размер: 323.73 МБ (339 456 548 байт)
   Стать Автором раздачи
   
Цитата

Вернуться в Electronic

Кто сейчас на конференции

Сейчас эту тему просматривают: нет зарегистрированных пользователей и гости: 1