VA - The Electric Institute (2005) New Religion [FLAC|Lossless|tracks+.cue] <IDM, Techno, Experimental>

 Статистика раздачи 
Размер: 449.29 МБ   |  Зарегистрирован: 05 окт 2018, 15:47   |   .torrent скачан: 1 раз
Сидеров: 5  [ 0 байт/сек ]     Личеров: 1  [ 0 байт/сек ]  
  
Аватара пользователя
 
Раздал: 3.63 ТБ
Скачал: 101.21 ГБ
Ратио: 36.755
Сообщения: 200954
Стаж: 1 год 8 месяцев 25 дней

The Electric Institute

Жанр: IDM, Techno, Experimental
Издание: New Religion - REG 118CD
Продолжительность: 01:14:38

Кодек: FLAC
Битрейт: Lossless
Тип рипа: tracks+.cue

Треклист:

01. Balil - Glass Dual (06:56)
02. Domu - Quarantine (05:59)
03. Beetlejuice - Whatever Happened To The Cosmic Kid? (07:08)
04. Blue Binary - Electric Institute Sector I (00:31)
05. As One - Remnant (05:03)
06. Blue Binary - Electric Institute Sector II (00:39)
07. Newworldaquarium - Monkey World (04:47)
08. Blue Binary - Pyramid I (00:50)
09. Kirk Degiorgio - Mindflay (04:18)
10. Blue Binary - Pyramid II (00:47)
11. 69 - Puntang (Edit) (08:40)
12. Neuropolitique - Artemis (Mayday Mix) (06:00)
13. Shake - The Stranger (05:41)
14. Blue Binary - To The Exoplanets (00:52)
15. Stacey Pullen - Liquid Letter (08:10)
16. Super-A-Loof - Night On The Promenade (08:17)
Код: Выделить всё
Exact Audio Copy V1.0 beta 3 from 29. August 2011

EAC extraction logfile from 4. October 2018, 21:42

Various / The Electric Institute

Used drive  : TSSTcorpCDDVDW SH-224DB   Adapter: 2  ID: 0

Read mode               : Secure
Utilize accurate stream : Yes
Defeat audio cache      : Yes
Make use of C2 pointers : No

Read offset correction                      : 6
Overread into Lead-In and Lead-Out          : No
Fill up missing offset samples with silence : Yes
Delete leading and trailing silent blocks   : No
Null samples used in CRC calculations       : Yes
Used interface                              : Native Win32 interface for Win NT & 2000
Gap handling                                : Appended to previous track

Used output format              : User Defined Encoder
Selected bitrate                : 128 kBit/s
Quality                         : High
Add ID3 tag                     : No
Command line compressor         : C:\Program Files (x86)\Exact Audio Copy\Flac\flac.exe
Additional command line options : -8 -V -T "ARTIST=%artist%" -T "TITLE=%title%" -T "ALBUM=%albumtitle%" -T "DATE=%year%" -T "TRACKNUMBER=%tracknr%" -T "GENRE=%genre%" -T "PERFORMER=%albuminterpret%" -T "COMPOSER=%composer%" %haslyrics%--tag-from-file=LYRICS="%lyricsfile%"%haslyrics% -T "ALBUMARTIST=%albumartist%" -T "DISCNUMBER=%cdnumber%" -T "TOTALDISCS=%totalcds%" -T "TOTALTRACKS=%numtracks%" -T "COMMENT=%comment%" %source% -o %dest%

TOC of the extracted CD

     Track |   Start  |  Length  | Start sector | End sector
    ---------------------------------------------------------
        1  |  0:00.00 |  6:55.45 |         0    |    31169
        2  |  6:55.45 |  5:58.70 |     31170    |    58089
        3  | 12:54.40 |  7:07.68 |     58090    |    90182
        4  | 20:02.33 |  0:31.00 |     90183    |    92507
        5  | 20:33.33 |  5:02.60 |     92508    |   115217
        6  | 25:36.18 |  0:38.52 |    115218    |   118119
        7  | 26:14.70 |  4:47.30 |    118120    |   139674
        8  | 31:02.25 |  0:50.13 |    139675    |   143437
        9  | 31:52.38 |  4:17.60 |    143438    |   162772
       10  | 36:10.23 |  0:46.67 |    162773    |   166289
       11  | 36:57.15 |  8:39.53 |    166290    |   205267
       12  | 45:36.68 |  6:00.02 |    205268    |   232269
       13  | 51:36.70 |  5:40.58 |    232270    |   257827
       14  | 57:17.53 |  0:52.37 |    257828    |   261764
       15  | 58:10.15 |  8:10.30 |    261765    |   298544
       16  | 66:20.45 |  8:17.33 |    298545    |   335852

Track  1

     Filename F:\EAC\The Electric Institute [2005] [REG 118CD] [ FLAC ]\01 -  Balil - Glass Dual.wav

     Pre-gap length  0:00:02.00

     Peak level 100.0 %
     Extraction speed 2.1 X
     Track quality 100.0 %
     Test CRC 33EE5873
     Copy CRC 33EE5873
     Accurately ripped (confidence 2)  [F15A39D0]  (AR v2)
     Copy OK

Track  2

     Filename F:\EAC\The Electric Institute [2005] [REG 118CD] [ FLAC ]\02 -  Domu - Quarantine.wav

     Pre-gap length  0:00:01.14

     Peak level 100.0 %
     Extraction speed 2.3 X
     Track quality 100.0 %
     Test CRC 49E3AACD
     Copy CRC 49E3AACD
     Accurately ripped (confidence 2)  [92A0B2C2]  (AR v2)
     Copy OK

Track  3

     Filename F:\EAC\The Electric Institute [2005] [REG 118CD] [ FLAC ]\03 -  Beetlejuice - Whatever Happened to the Cosmic Kid.wav

     Peak level 100.0 %
     Extraction speed 2.3 X
     Track quality 99.9 %
     Test CRC 6C02AD18
     Copy CRC 6C02AD18
     Accurately ripped (confidence 2)  [FA8DFA6F]  (AR v2)
     Copy OK

Track  4

     Filename F:\EAC\The Electric Institute [2005] [REG 118CD] [ FLAC ]\04 -  Blue Binary - Electric Institute Sector I.wav

     Peak level 37.4 %
     Extraction speed 1.3 X
     Track quality 100.0 %
     Test CRC 82864182
     Copy CRC 82864182
     Accurately ripped (confidence 2)  [08974D35]  (AR v2)
     Copy OK

Track  5

     Filename F:\EAC\The Electric Institute [2005] [REG 118CD] [ FLAC ]\05 -  As One - Remnant.wav

     Peak level 99.7 %
     Extraction speed 2.3 X
     Track quality 99.9 %
     Test CRC C0E04655
     Copy CRC C0E04655
     Accurately ripped (confidence 2)  [932CF102]  (AR v2)
     Copy OK

Track  6

     Filename F:\EAC\The Electric Institute [2005] [REG 118CD] [ FLAC ]\06 -  Blue Binary - Electric Institute Sector II.wav

     Peak level 39.6 %
     Extraction speed 1.6 X
     Track quality 100.0 %
     Test CRC C54E11B3
     Copy CRC C54E11B3
     Accurately ripped (confidence 2)  [D0CCBA95]  (AR v2)
     Copy OK

Track  7

     Filename F:\EAC\The Electric Institute [2005] [REG 118CD] [ FLAC ]\07 -  Newworldaquarium - MonkeyWorld.wav

     Peak level 94.0 %
     Extraction speed 2.9 X
     Track quality 100.0 %
     Test CRC 27A602F2
     Copy CRC 27A602F2
     Accurately ripped (confidence 2)  [86B107A6]  (AR v2)
     Copy OK

Track  8

     Filename F:\EAC\The Electric Institute [2005] [REG 118CD] [ FLAC ]\08 -  Blue Binary - Pyramid I.wav

     Peak level 19.3 %
     Extraction speed 1.9 X
     Track quality 100.0 %
     Test CRC EF702057
     Copy CRC EF702057
     Accurately ripped (confidence 2)  [B4AE6B7F]  (AR v2)
     Copy OK

Track  9

     Filename F:\EAC\The Electric Institute [2005] [REG 118CD] [ FLAC ]\09 -  Kirk Degiorgio - Mindflay.wav

     Peak level 100.0 %
     Extraction speed 3.0 X
     Track quality 100.0 %
     Test CRC 21A8DA03
     Copy CRC 21A8DA03
     Accurately ripped (confidence 2)  [D67587B0]  (AR v2)
     Copy OK

Track 10

     Filename F:\EAC\The Electric Institute [2005] [REG 118CD] [ FLAC ]\10 -  Blue Binary - Pyramid II.wav

     Peak level 24.3 %
     Extraction speed 1.9 X
     Track quality 100.0 %
     Test CRC A733199A
     Copy CRC A733199A
     Accurately ripped (confidence 2)  [FAB8F55F]  (AR v2)
     Copy OK

Track 11

     Filename F:\EAC\The Electric Institute [2005] [REG 118CD] [ FLAC ]\11 -  69 - Puntang (edit).wav

     Peak level 100.0 %
     Extraction speed 3.5 X
     Track quality 100.0 %
     Test CRC 94FEF169
     Copy CRC 94FEF169
     Accurately ripped (confidence 2)  [D6B5384E]  (AR v2)
     Copy OK

Track 12

     Filename F:\EAC\The Electric Institute [2005] [REG 118CD] [ FLAC ]\12 -  Neuropolitique - Artemis (Mayday mix).wav

     Pre-gap length  0:00:02.44

     Peak level 99.5 %
     Extraction speed 3.5 X
     Track quality 100.0 %
     Test CRC ABE697FA
     Copy CRC ABE697FA
     Accurately ripped (confidence 2)  [321ACE57]  (AR v2)
     Copy OK

Track 13

     Filename F:\EAC\The Electric Institute [2005] [REG 118CD] [ FLAC ]\13 -  Shake - The Stranger.wav

     Pre-gap length  0:00:04.48

     Peak level 100.0 %
     Extraction speed 3.6 X
     Track quality 100.0 %
     Test CRC 3987C0A7
     Copy CRC 3987C0A7
     Accurately ripped (confidence 2)  [022B8C90]  (AR v2)
     Copy OK

Track 14

     Filename F:\EAC\The Electric Institute [2005] [REG 118CD] [ FLAC ]\14 -  Blue Binary - To The Exoplanets.wav

     Peak level 95.1 %
     Extraction speed 2.3 X
     Track quality 100.0 %
     Test CRC E5A2E434
     Copy CRC E5A2E434
     Accurately ripped (confidence 2)  [E815F03C]  (AR v2)
     Copy OK

Track 15

     Filename F:\EAC\The Electric Institute [2005] [REG 118CD] [ FLAC ]\15 -  Stacey Pullen - Liquid Letter.wav

     Peak level 100.0 %
     Extraction speed 3.9 X
     Track quality 100.0 %
     Test CRC 94CC8302
     Copy CRC 94CC8302
     Accurately ripped (confidence 2)  [6E878083]  (AR v2)
     Copy OK

Track 16

     Filename F:\EAC\The Electric Institute [2005] [REG 118CD] [ FLAC ]\16 -  Super-A-Loof - Night on the Promenade.wav

     Peak level 100.0 %
     Extraction speed 4.1 X
     Track quality 100.0 %
     Test CRC 0C7EDD20
     Copy CRC 0C7EDD20
     Accurately ripped (confidence 2)  [9571B6BD]  (AR v2)
     Copy OK

All tracks accurately ripped

No errors occurred

End of status report

---- CUETools DB Plugin V2.1.3

[CTDB TOCID: n147cwtuYyjZhEkrfkz_hRPgepE-] found, Submit result: n147cwtuYyjZhEkrfkz_hRPgepE- has been confirmed
[0ba13d09] (6/6) Accurately ripped

==== Log checksum 5CA625E9B51DF6AC173C2910B9855FFFF060D1F806263111A366D83D17065140 ====
Код: Выделить всё
REM GENRE Electronic
REM DATE 2005
REM DISCID F7117E10
REM COMMENT "ExactAudioCopy v1.0b3"
PERFORMER "Various"
TITLE "The Electric Institute"
FILE "01 -  Balil - Glass Dual.wav" WAVE
  TRACK 01 AUDIO
    TITLE "Balil - Glass Dual"
    PERFORMER "Various"
    INDEX 01 00:00:00
  TRACK 02 AUDIO
    TITLE "Domu - Quarantine"
    PERFORMER "Various"
    INDEX 00 06:54:34
FILE "02 -  Domu - Quarantine.wav" WAVE
    INDEX 01 00:00:00
FILE "03 -  Beetlejuice - Whatever Happened to the Cosmic Kid.wav" WAVE
  TRACK 03 AUDIO
    TITLE "Beetlejuice - Whatever Happened to the Cosmic Kid ?"
    PERFORMER "Various"
    ISRC GBAYE0500842
    INDEX 01 00:00:00
FILE "04 -  Blue Binary - Electric Institute Sector I.wav" WAVE
  TRACK 04 AUDIO
    TITLE "Blue Binary - Electric Institute Sector I"
    PERFORMER "Various"
    ISRC GBAYE0501199
    INDEX 01 00:00:00
FILE "05 -  As One - Remnant.wav" WAVE
  TRACK 05 AUDIO
    TITLE "As One - Remnant"
    PERFORMER "Various"
    ISRC GBAYE0500843
    INDEX 01 00:00:00
FILE "06 -  Blue Binary - Electric Institute Sector II.wav" WAVE
  TRACK 06 AUDIO
    TITLE "Blue Binary - Electric Institute Sector II"
    PERFORMER "Various"
    ISRC GBAYE0501200
    INDEX 01 00:00:00
FILE "07 -  Newworldaquarium - MonkeyWorld.wav" WAVE
  TRACK 07 AUDIO
    TITLE "Newworldaquarium - MonkeyWorld"
    PERFORMER "Various"
    INDEX 01 00:00:00
FILE "08 -  Blue Binary - Pyramid I.wav" WAVE
  TRACK 08 AUDIO
    TITLE "Blue Binary - Pyramid I"
    PERFORMER "Various"
    ISRC GBAYE0501201
    INDEX 01 00:00:00
FILE "09 -  Kirk Degiorgio - Mindflay.wav" WAVE
  TRACK 09 AUDIO
    TITLE "Kirk Degiorgio - Mindflay"
    PERFORMER "Various"
    ISRC GBAYE0500189
    INDEX 01 00:00:00
FILE "10 -  Blue Binary - Pyramid II.wav" WAVE
  TRACK 10 AUDIO
    TITLE "Blue Binary - Pyramid II"
    PERFORMER "Various"
    ISRC GBAYE0501202
    INDEX 01 00:00:00
FILE "11 -  69 - Puntang (edit).wav" WAVE
  TRACK 11 AUDIO
    TITLE "69 - Puntang (edit)"
    PERFORMER "Various"
    INDEX 01 00:00:00
  TRACK 12 AUDIO
    TITLE "Neuropolitique - Artemis (Mayday mix)"
    PERFORMER "Various"
    ISRC GBAYE0500190
    INDEX 00 08:37:20
FILE "12 -  Neuropolitique - Artemis (Mayday mix).wav" WAVE
    INDEX 01 00:00:00
  TRACK 13 AUDIO
    TITLE "Shake - The Stranger"
    PERFORMER "Various"
    INDEX 00 05:55:41
FILE "13 -  Shake - The Stranger.wav" WAVE
    INDEX 01 00:00:00
FILE "14 -  Blue Binary - To The Exoplanets.wav" WAVE
  TRACK 14 AUDIO
    TITLE "Blue Binary - To The Exoplanets"
    PERFORMER "Various"
    ISRC GBAYE0501225
    INDEX 01 00:00:00
FILE "15 -  Stacey Pullen - Liquid Letter.wav" WAVE
  TRACK 15 AUDIO
    TITLE "Stacey Pullen - Liquid Letter"
    PERFORMER "Various"
    INDEX 01 00:00:00
FILE "16 -  Super-A-Loof - Night on the Promenade.wav" WAVE
  TRACK 16 AUDIO
    TITLE "Super-A-Loof - Night on the Promenade"
    PERFORMER "Various"
    ISRC GBAYE0500184
    INDEX 01 00:00:00
Время раздачи: 12/7
Не забывайте говорить Спасибо. Не уходите с раздачи!   
Торрент: Зарегистрирован [05 окт 2018, 15:47] Для скачивания .torrent
необходима регистрация
Или скачать с помощью
MediaGet
Статус:
Проверен
 
.torrent скачан: 1 раз
Хэш: 58b42162353aabdf987798482a124e96e6bc936f
Размер: 449.29 МБ (471 117 503 байт)
   Стать Автором раздачи
   
Цитата

Вернуться в Electronic

Кто сейчас на конференции

Сейчас эту тему просматривают: нет зарегистрированных пользователей и гости: 1