Великий воин / Бесстрашный / Магадиш / Magadheera (С.С. Раджамоули / S.S. Rajamouli) [2009, Индия, Драма, приключения, боевик, сказка, WEB-DLRip] [ТВ-версия] MVO + Original

 Статистика раздачи 
Размер: 1.46 ГБ   |  Зарегистрирован: 29 июн 2018, 09:51   |   .torrent скачан: 0 раз
Сидеров: 0  [ 0 байт/сек ]     Личеров: 0  [ 0 байт/сек ]  
  
Аватара пользователя
 
Раздал: 0 байт
Скачал: 0 байт
Ратио: Inf.
Сообщения: 182851
Стаж: 7 лет 8 месяцев 4 дня
Откуда: Rossiya

Великий воин / Бесстрашный / Магадиш / Magadheera / ТВ-версия
Страна: Индия
Жанр: Драма, приключения, боевик, сказка
Год выпуска: 2009
Продолжительность: 02:15:22
Перевод: Профессиональный (многоголосый закадровый) Bollywood HD
Субтитры: нет
Оригинальная аудиодорожка: хинди
Режиссер: С.С. Раджамоули / S.S. Rajamouli
В ролях: Рам Черан Теджа, Каджал Агарвал, Сунил, Шрихари, Сарат Бабу, Дев Гил, Брахманандам
Описание: Любовь не знает преград, она тянется из столетия в столетие, из жизни в жизнь. Бесстрашный Бхайрава погибает в 1600 году, так и не признавшись в любви принцессе Митре. Через 400 лет их история продолжается...
Сэмпл: http://multi-up.com/1202665
Качество видео: WEB-DLRip
Формат видео: AVI
Видео: MPEG4, XviD, 720x304 (2.35:1), 25.000 fps, 1 143 Kbps (0.209 bit/pixel)
Аудио: AC-3, 48.0 KHz, 2 ch, 192 Kbps, CBR - русский
Аудио 2: AC-3, 48.0 KHz, 2 ch, 192 Kbps, CBR - хинди
Код: Выделить всёОбщее
Полное имя                               : M:Великий воин.avi
Формат                                   : AVI
Формат/Информация                        : Audio Video Interleave
Размер файла                             : 1,46 Гбайт
Продолжительность                        : 2 ч. 15 м.
Общий поток                              : 1541 Кбит/сек
Название фильма                          : Великий воин / Бесстрашный / Магадиш / Magadheera (2009
Программа кодирования                    : VirtualDubMod 1.5.10.2 (build 2540/release)
Библиотека кодирования                   : VirtualDubMod build 2540/release
Авторское право                          : miha2154
Видео
Идентификатор                            : 0
Формат                                   : MPEG-4 Visual
Профиль формата                          : Advanced Simple@L5
Настройки формата                        : BVOP1 / Custom Matrix
Параметр BVOP формата                    : 1
Параметр QPel формата                    : Нет
Параметр GMC формата                     : Без точки перехода
Параметр матрицы формата                 : Выборочная
Идентификатор кодека                     : XVID
Идентификатор кодека/Подсказка           : XviD
Продолжительность                        : 2 ч. 15 м.
Битрейт                                  : 1143 Кбит/сек
Ширина                                   : 720 пикселей
Высота                                   : 304 пикселя
Соотношение сторон                       : 2,35:1
Частота кадров                           : 25,000 кадров/сек
Цветовое пространство                    : YUV
Субдискретизация насыщенности            : 4:2:0
Битовая глубина                          : 8 бит
Тип развёртки                            : Прогрессивная
Метод сжатия                             : С потерями
Бит/(Пиксели*Кадры)                      : 0.209
Размер потока                            : 1,08 Гбайт (74%)
Библиотека кодирования                   : XviD 65
Аудио #1
Идентификатор                            : 1
Формат                                   : AC-3
Формат/Информация                        : Audio Coding 3
Идентификатор кодека                     : 2000
Продолжительность                        : 2 ч. 15 м.
Вид битрейта                             : Постоянный
Битрейт                                  : 192 Кбит/сек
Каналы                                   : 2 канала
Расположение каналов                     : Front: L R
Частота                                  : 48,0 КГц
Частота кадров                           : 31,250 кадров/сек (1536 SPF)
Битовая глубина                          : 16 бит
Метод сжатия                             : С потерями
Размер потока                            : 186 Мбайт (12%)
Выравнивание                             : Разделение по промежуткам
Продолжительность промежутка             : 40  мс. (1,00 видеокадр)
Время предзагрузки промежутка            : 500  мс.
Заголовок                                : Профессиональный (многоголосый, закадровый) Bollywood HD
ServiceKind/String                       : Complete Main
Аудио #2
Идентификатор                            : 2
Формат                                   : AC-3
Формат/Информация                        : Audio Coding 3
Идентификатор кодека                     : 2000
Продолжительность                        : 2 ч. 15 м.
Вид битрейта                             : Постоянный
Битрейт                                  : 192 Кбит/сек
Каналы                                   : 2 канала
Расположение каналов                     : Front: L R
Частота                                  : 48,0 КГц
Частота кадров                           : 31,250 кадров/сек (1536 SPF)
Битовая глубина                          : 16 бит
Метод сжатия                             : С потерями
Размер потока                            : 186 Мбайт (12%)
Выравнивание                             : Разделение по промежуткам
Продолжительность промежутка             : 40  мс. (1,00 видеокадр)
Время предзагрузки промежутка            : 500  мс.
Заголовок                                : Hindi
ServiceKind/String                       : Complete Main

Торрент перезалит 29.06.18 - hdtvrip заменен на webdlrip. за исходник спасибо 19w85
Не забывайте говорить Спасибо. Не уходите с раздачи!   
Торрент: Зарегистрирован [29 июн 2018, 09:51] Для скачивания .torrent
необходима регистрация
Или скачать с помощью
MediaGet
Статус:
Проверен
 
.torrent скачан: 0 раз
Размер: 1.46 ГБ (1 564 942 336 байт)
   Стать Автором раздачи
   
Цитата
  • Похожие торренты
    Ответы
    Просмотры
    Последнее сообщение

Вернуться в Индийское кино

Кто сейчас на конференции

Сейчас эту тему просматривают: нет зарегистрированных пользователей и гости: 1