(Pop, Soul, Jazz) [CD] Annie Lennox - Nostalgia - 2014, FLAC (tracks+.cue), lossless

 Статистика раздачи 
Размер: 217.59 МБ   |  Зарегистрирован: 24 окт 2014, 14:39   |   .torrent скачан: 2 раз
Сидеров: 959  [ 0 байт/сек ]     Личеров: 28  [ 0 байт/сек ]  
  
Аватара пользователя
Главный редактор
Главный редактор
Автор темы
Раздал: 10.09 ТБ
Скачал: 1.76 ТБ
Ратио: 6.147
Сообщения: 3363
Стаж: 6 лет 11 месяцев
Откуда: Санкт-Петербург

Annie Lennox - Nostalgia


Оригинальное название: Annie Lennox - Nostalgia
Страна: UK
Производитель Диска - Лейбл: Island
Жанр: Pop, Soul, Jazz
Дата выхода: 2014
Формат аудио: FLAC
Исполнитель: Annie Lennox
Тип рипа: tracks+.cue
Битрэйт: Pop, Soul, Jazz
Продолжительность: 00:42:36
Релизер: error404
Наличие сканов: нет
О музыке: Энни Леннокс (англ. Annie Lennox родилась 25 декабря 1954, Абердин, Шотландия) — шотландская певица. За свою карьеру она была удостоена премий «Оскар», «Золотой глобус», четырех «Грэмми» и рекордных восьми «BRIT Awards». Annie Lennox достигла наибольшего успеха в начале 1990-х годов, когда начала сольную карьеру, выпустив в 1992 году альбом «Diva». Всего выпустила пять студийных альбомов и несколько сборников. Annie Lennox была включена в список «100 величайших исполнителей всех времён по версии Rolling Stone». Ей был присвоен титул «Самого успешного музыканта Великобритании» благодаря ее коммерческому успеху. Annie Lennox является одним из самых продаваемых музыкантов с продажами более 80 миллионов записей по всему миру. Annie Lennox активно занимается благотворительностью (борьбой за права женщин и лесбиянок, за сохранение лесов, против эпидемии ВИЧ, нищеты, и т. д.). Она является послом доброй воли ЮНЭЙДС. В 2011 году была награждена орденом Британской империи.
01. Memphis in June (2:47)
02. Georgia on My Mind (3:56)
03. I Put a Spell on You (3:32)
04. Summertime (From 'Porgy and Bess') (5:12)
05. I Cover the Waterfront (3:00)
06. Strange Fruit (3:47)
07. God Bless the Child (3:03)
08. You Belong to Me (3:22)
09. September in the Rain (2:53)
10. I Can Dream, Can't I? (2:56)
11. The Nearness of You (2:32)
12. Mood Indigo (5:35)

Код: Выделить всё
Exact Audio Copy V1.0 beta 3 from 29. August 2011
EAC extraction logfile from 21. October 2014, 15:54

Annie Lennox / Nostalgia

Used drive  : PLEXTOR BD-R   PX-B940SA   Adapter: 0  ID: 0

Read mode               : Secure
Utilize accurate stream : Yes
Defeat audio cache      : Yes
Make use of C2 pointers : No
Read offset correction                      : 667
Overread into Lead-In and Lead-Out          : No
Fill up missing offset samples with silence : Yes
Delete leading and trailing silent blocks   : No
Null samples used in CRC calculations       : Yes
Used interface                              : Native Win32 interface for Win NT & 2000
Gap handling                                : Appended to previous track
Used output format              : User Defined Encoder
Selected bitrate                : 1024 kBit/s
Quality                         : High
Add ID3 tag                     : No
Command line compressor         : C:\Program Files (x86)\Exact Audio Copy\Flac\flac.exe
Additional command line options : -8 -V -T "ARTIST=%artist%" -T "TITLE=%title%" -T "ALBUM=%albumtitle%" -T "DATE=%year%" -T "TRACKNUMBER=%tracknr%" -T "GENRE=%genre%" -T "PERFORMER=%albuminterpret%" -T "COMPOSER=%composer%" %haslyrics%--tag-from-file=LYRICS="%lyricsfile%"%haslyrics% -T "ALBUMARTIST=%albumartist%" -T "DISCNUMBER=%cdnumber%" -T "TOTALDISCS=%totalcds%" -T "TOTALTRACKS=%numtracks%" -T "COMMENT=%comment%" %source% -o %dest%
TOC of the extracted CD

     Track |   Start  |  Length  | Start sector | End sector
    ---------------------------------------------------------
        1  |  0:00.00 |  2:47.00 |         0    |    12524
        2  |  2:47.00 |  3:55.39 |     12525    |    30188
        3  |  6:42.39 |  3:32.04 |     30189    |    46092
        4  | 10:14.43 |  5:12.16 |     46093    |    69508
        5  | 15:26.59 |  2:59.65 |     69509    |    82998
        6  | 18:26.49 |  3:46.48 |     82999    |    99996
        7  | 22:13.22 |  3:03.03 |     99997    |   113724
        8  | 25:16.25 |  3:22.28 |    113725    |   128902
        9  | 28:38.53 |  2:53.23 |    128903    |   141900
       10  | 31:32.01 |  2:56.15 |    141901    |   155115
       11  | 34:28.16 |  2:32.37 |    155116    |   166552
       12  | 37:00.53 |  5:34.67 |    166553    |   191669
Track  1

     Filename C:\EAC Rips\01. Memphis in June.wav

     Pre-gap length  0:00:02.00

     Copy aborted

Track  2

     Copy aborted

Track  3

     Copy aborted

Track  4

     Copy aborted

Track  5

     Copy aborted

Track  6

     Copy aborted

Track  7

     Copy aborted

Track  8

     Copy aborted

Track  9

     Copy aborted

Track 10

     Copy aborted

Track 11

     Copy aborted

Track 12

     Copy aborted

No tracks could be verified as accurate

There were errors

End of status report

==== Log checksum E97E0D02C419E2B7B68545928FDA17970E178291DAB4FC9A67980C9AC8D6E40B ====

------------------------------------------------------------

Exact Audio Copy V1.0 beta 3 from 29. August 2011

EAC extraction logfile from 21. October 2014, 15:55

Annie Lennox / Nostalgia

Used drive  : PLEXTOR BD-R   PX-B940SA   Adapter: 0  ID: 0

Read mode               : Secure
Utilize accurate stream : Yes
Defeat audio cache      : Yes
Make use of C2 pointers : No
Read offset correction                      : 667
Overread into Lead-In and Lead-Out          : No
Fill up missing offset samples with silence : Yes
Delete leading and trailing silent blocks   : No
Null samples used in CRC calculations       : Yes
Used interface                              : Native Win32 interface for Win NT & 2000
Gap handling                                : Appended to previous track
Used output format              : User Defined Encoder
Selected bitrate                : 1024 kBit/s
Quality                         : High
Add ID3 tag                     : No
Command line compressor         : C:\Program Files (x86)\Exact Audio Copy\Flac\flac.exe
Additional command line options : -8 -V -T "ARTIST=%artist%" -T "TITLE=%title%" -T "ALBUM=%albumtitle%" -T "DATE=%year%" -T "TRACKNUMBER=%tracknr%" -T "GENRE=%genre%" -T "PERFORMER=%albuminterpret%" -T "COMPOSER=%composer%" %haslyrics%--tag-from-file=LYRICS="%lyricsfile%"%haslyrics% -T "ALBUMARTIST=%albumartist%" -T "DISCNUMBER=%cdnumber%" -T "TOTALDISCS=%totalcds%" -T "TOTALTRACKS=%numtracks%" -T "COMMENT=%comment%" %source% -o %dest%
TOC of the extracted CD

     Track |   Start  |  Length  | Start sector | End sector
    ---------------------------------------------------------
        1  |  0:00.00 |  2:47.00 |         0    |    12524
        2  |  2:47.00 |  3:55.39 |     12525    |    30188
        3  |  6:42.39 |  3:32.04 |     30189    |    46092
        4  | 10:14.43 |  5:12.16 |     46093    |    69508
        5  | 15:26.59 |  2:59.65 |     69509    |    82998
        6  | 18:26.49 |  3:46.48 |     82999    |    99996
        7  | 22:13.22 |  3:03.03 |     99997    |   113724
        8  | 25:16.25 |  3:22.28 |    113725    |   128902
        9  | 28:38.53 |  2:53.23 |    128903    |   141900
       10  | 31:32.01 |  2:56.15 |    141901    |   155115
       11  | 34:28.16 |  2:32.37 |    155116    |   166552
       12  | 37:00.53 |  5:34.67 |    166553    |   191669
Track  1

     Filename C:\EAC Rips\01. Memphis in June.wav

     Pre-gap length  0:00:02.00

     Copy aborted

Track  2

     Copy aborted

Track  3

     Copy aborted

Track  4

     Copy aborted

Track  5

     Copy aborted

Track  6

     Copy aborted

Track  7

     Copy aborted

Track  8

     Copy aborted

Track  9

     Copy aborted

Track 10

     Copy aborted

Track 11

     Copy aborted

Track 12

     Copy aborted

No tracks could be verified as accurate

There were errors

End of status report

==== Log checksum AFF56A871398679BE56914A59F6D977BA0479CFAEA504F05FDDB384D4807AE53 ====

------------------------------------------------------------

Exact Audio Copy V1.0 beta 3 from 29. August 2011

EAC extraction logfile from 21. October 2014, 15:58

Annie Lennox / Nostalgia

Used drive  : PLEXTOR BD-R   PX-B940SA   Adapter: 0  ID: 0

Read mode               : Secure
Utilize accurate stream : Yes
Defeat audio cache      : Yes
Make use of C2 pointers : No
Read offset correction                      : 667
Overread into Lead-In and Lead-Out          : No
Fill up missing offset samples with silence : Yes
Delete leading and trailing silent blocks   : No
Null samples used in CRC calculations       : Yes
Used interface                              : Native Win32 interface for Win NT & 2000
Gap handling                                : Appended to previous track
Used output format              : User Defined Encoder
Selected bitrate                : 1024 kBit/s
Quality                         : High
Add ID3 tag                     : No
Command line compressor         : C:\Program Files (x86)\Exact Audio Copy\Flac\flac.exe
Additional command line options : -8 -V -T "ARTIST=%artist%" -T "TITLE=%title%" -T "ALBUM=%albumtitle%" -T "DATE=%year%" -T "TRACKNUMBER=%tracknr%" -T "GENRE=%genre%" -T "PERFORMER=%albuminterpret%" -T "COMPOSER=%composer%" %haslyrics%--tag-from-file=LYRICS="%lyricsfile%"%haslyrics% -T "ALBUMARTIST=%albumartist%" -T "DISCNUMBER=%cdnumber%" -T "TOTALDISCS=%totalcds%" -T "TOTALTRACKS=%numtracks%" -T "COMMENT=%comment%" %source% -o %dest%
TOC of the extracted CD

     Track |   Start  |  Length  | Start sector | End sector
    ---------------------------------------------------------
        1  |  0:00.00 |  2:47.00 |         0    |    12524
        2  |  2:47.00 |  3:55.39 |     12525    |    30188
        3  |  6:42.39 |  3:32.04 |     30189    |    46092
        4  | 10:14.43 |  5:12.16 |     46093    |    69508
        5  | 15:26.59 |  2:59.65 |     69509    |    82998
        6  | 18:26.49 |  3:46.48 |     82999    |    99996
        7  | 22:13.22 |  3:03.03 |     99997    |   113724
        8  | 25:16.25 |  3:22.28 |    113725    |   128902
        9  | 28:38.53 |  2:53.23 |    128903    |   141900
       10  | 31:32.01 |  2:56.15 |    141901    |   155115
       11  | 34:28.16 |  2:32.37 |    155116    |   166552
       12  | 37:00.53 |  5:34.67 |    166553    |   191669
Track  1

     Filename C:\EAC Rips\01. Memphis in June.wav

     Pre-gap length  0:00:02.00

     Peak level 98.3 %
     Extraction speed 3.9 X
     Track quality 99.9 %
     Test CRC 45F32B51
     Copy CRC 45F32B51
     Track not present in AccurateRip database
     Copy OK
Track  2

     Filename C:\EAC Rips\02. Georgia on My Mind.wav

     Copy aborted

Track  3

     Copy aborted

Track  4

     Copy aborted

Track  5

     Copy aborted

Track  6

     Copy aborted

Track  7

     Copy aborted

Track  8

     Copy aborted

Track  9

     Copy aborted

Track 10

     Copy aborted

Track 11

     Copy aborted

Track 12

     Copy aborted

 1 track(s) not present in the AccurateRip database
11 track(s) canceled
No tracks could be verified as accurate

There were errors

End of status report

==== Log checksum B89859B01D26DE1D6A07BD8A03A11A4445A81B4543C126EE983A5488E2EBE518 ====

------------------------------------------------------------

Exact Audio Copy V1.0 beta 3 from 29. August 2011

EAC extraction logfile from 21. October 2014, 16:13

Annie Lennox / Nostalgia

Used drive  : PLEXTOR BD-R   PX-B940SA   Adapter: 0  ID: 0

Read mode               : Secure
Utilize accurate stream : Yes
Defeat audio cache      : Yes
Make use of C2 pointers : No
Read offset correction                      : 667
Overread into Lead-In and Lead-Out          : No
Fill up missing offset samples with silence : Yes
Delete leading and trailing silent blocks   : No
Null samples used in CRC calculations       : Yes
Used interface                              : Native Win32 interface for Win NT & 2000
Gap handling                                : Appended to previous track
Used output format              : User Defined Encoder
Selected bitrate                : 1024 kBit/s
Quality                         : High
Add ID3 tag                     : No
Command line compressor         : C:\Program Files (x86)\Exact Audio Copy\Flac\flac.exe
Additional command line options : -8 -V -T "ARTIST=%artist%" -T "TITLE=%title%" -T "ALBUM=%albumtitle%" -T "DATE=%year%" -T "TRACKNUMBER=%tracknr%" -T "GENRE=%genre%" -T "PERFORMER=%albuminterpret%" -T "COMPOSER=%composer%" %haslyrics%--tag-from-file=LYRICS="%lyricsfile%"%haslyrics% -T "ALBUMARTIST=%albumartist%" -T "DISCNUMBER=%cdnumber%" -T "TOTALDISCS=%totalcds%" -T "TOTALTRACKS=%numtracks%" -T "COMMENT=%comment%" %source% -o %dest%
TOC of the extracted CD

     Track |   Start  |  Length  | Start sector | End sector
    ---------------------------------------------------------
        1  |  0:00.00 |  2:47.00 |         0    |    12524
        2  |  2:47.00 |  3:55.39 |     12525    |    30188
        3  |  6:42.39 |  3:32.04 |     30189    |    46092
        4  | 10:14.43 |  5:12.16 |     46093    |    69508
        5  | 15:26.59 |  2:59.65 |     69509    |    82998
        6  | 18:26.49 |  3:46.48 |     82999    |    99996
        7  | 22:13.22 |  3:03.03 |     99997    |   113724
        8  | 25:16.25 |  3:22.28 |    113725    |   128902
        9  | 28:38.53 |  2:53.23 |    128903    |   141900
       10  | 31:32.01 |  2:56.15 |    141901    |   155115
       11  | 34:28.16 |  2:32.37 |    155116    |   166552
       12  | 37:00.53 |  5:34.67 |    166553    |   191669
Track  1

     Filename C:\EAC Rips\01. Memphis in June.wav

     Pre-gap length  0:00:02.00

     Peak level 98.3 %
     Extraction speed 3.9 X
     Track quality 99.9 %
     Test CRC 45F32B51
     Copy CRC 45F32B51
     Track not present in AccurateRip database
     Copy OK
Track  2

     Filename C:\EAC Rips\02. Georgia on My Mind.wav

     Peak level 98.3 %
     Extraction speed 5.2 X
     Track quality 100.0 %
     Test CRC 0F92AA41
     Copy CRC 0F92AA41
     Track not present in AccurateRip database
     Copy OK
Track  3

     Filename C:\EAC Rips\03. I Put a Spell on You.wav

     Peak level 98.3 %
     Extraction speed 5.5 X
     Track quality 100.0 %
     Test CRC 7E7C95A4
     Copy CRC 7E7C95A4
     Track not present in AccurateRip database
     Copy OK
Track  4

     Filename C:\EAC Rips\04. Summertime (From ''Porgy and Bess'').wav

     Peak level 98.3 %
     Extraction speed 6.1 X
     Track quality 100.0 %
     Test CRC 8C4044D6
     Copy CRC 8C4044D6
     Track not present in AccurateRip database
     Copy OK
Track  5

     Filename C:\EAC Rips\05. I Cover the Waterfront.wav

     Peak level 98.3 %
     Extraction speed 6.0 X
     Track quality 100.0 %
     Test CRC 58DAA1CC
     Copy CRC 58DAA1CC
     Track not present in AccurateRip database
     Copy OK
Track  6

     Filename C:\EAC Rips\06. Strange Fruit.wav

     Peak level 98.3 %
     Extraction speed 6.4 X
     Track quality 100.0 %
     Test CRC 270024DA
     Copy CRC 270024DA
     Track not present in AccurateRip database
     Copy OK
Track  7

     Filename C:\EAC Rips\07. God Bless the Child.wav

     Peak level 98.3 %
     Extraction speed 6.5 X
     Track quality 100.0 %
     Test CRC CC06616C
     Copy CRC CC06616C
     Track not present in AccurateRip database
     Copy OK
Track  8

     Filename C:\EAC Rips\08. You Belong to Me.wav

     Peak level 98.3 %
     Extraction speed 6.8 X
     Track quality 100.0 %
     Test CRC 8CA48D1B
     Copy CRC 8CA48D1B
     Track not present in AccurateRip database
     Copy OK
Track  9

     Filename C:\EAC Rips\09. September in the Rain.wav

     Peak level 98.3 %
     Extraction speed 5.8 X
     Track quality 99.9 %
     Test CRC 4D773711
     Copy CRC 4D773711
     Track not present in AccurateRip database
     Copy OK
Track 10

     Filename C:\EAC Rips\10. I Can Dream, Can't I.wav

     Peak level 98.3 %
     Extraction speed 7.0 X
     Track quality 100.0 %
     Test CRC 7FC53E76
     Copy CRC 7FC53E76
     Track not present in AccurateRip database
     Copy OK
Track 11

     Filename C:\EAC Rips\11. The Nearness of You.wav

     Peak level 98.3 %
     Extraction speed 7.0 X
     Track quality 100.0 %
     Test CRC 6B6C4482
     Copy CRC 6B6C4482
     Track not present in AccurateRip database
     Copy OK
Track 12

     Filename C:\EAC Rips\12. Mood Indigo.wav

     Peak level 98.3 %
     Extraction speed 8.0 X
     Track quality 100.0 %
     Test CRC EAFD81F9
     Copy CRC EAFD81F9
     Track not present in AccurateRip database
     Copy OK
None of the tracks are present in the AccurateRip database

No errors occurred

End of status report

---- CUETools DB Plugin V2.1.3

[CTDB TOCID: Qgz_j80RQqnSnjfZgBTTRcpYhI0-] found, Submit result: Qgz_j80RQqnSnjfZgBTTRcpYhI0- has been confirmed
[0def08cb] (1/1) Accurately ripped
==== Log checksum 733A5B263CC78DE743E9AEEF99823DBCCBBC4DA0D3BB47F5BDDD9168BFEA3C5F ====

Код: Выделить всё
REM GENRE Soul
REM DATE 2014
REM DISCID 9009FB0C
REM COMMENT "ExactAudioCopy v1.0b3"
CATALOG 0602537995325
PERFORMER "Annie Lennox"
TITLE "Nostalgia"
FILE "01. Memphis in June.wav" WAVE
  TRACK 01 AUDIO
    TITLE "Memphis in June"
    PERFORMER "Annie Lennox"
    ISRC GBUM71403863
    FLAGS DCP
    INDEX 01 00:00:00
FILE "02. Georgia on My Mind.wav" WAVE
  TRACK 02 AUDIO
    TITLE "Georgia on My Mind"
    PERFORMER "Annie Lennox"
    ISRC GBUM71403868
    FLAGS DCP
    INDEX 01 00:00:00
FILE "03. I Put a Spell on You.wav" WAVE
  TRACK 03 AUDIO
    TITLE "I Put a Spell on You"
    PERFORMER "Annie Lennox"
    ISRC GBUM71403864
    FLAGS DCP
    INDEX 01 00:00:00
FILE "04. Summertime (From ''Porgy and Bess'').wav" WAVE
  TRACK 04 AUDIO
    TITLE "Summertime (From 'Porgy and Bess')"
    PERFORMER "Annie Lennox"
    ISRC GBUM71403859
    FLAGS DCP
    INDEX 01 00:00:00
FILE "05. I Cover the Waterfront.wav" WAVE
  TRACK 05 AUDIO
    TITLE "I Cover the Waterfront"
    PERFORMER "Annie Lennox"
    ISRC GBUM71403865
    FLAGS DCP
    INDEX 01 00:00:00
FILE "06. Strange Fruit.wav" WAVE
  TRACK 06 AUDIO
    TITLE "Strange Fruit"
    PERFORMER "Annie Lennox"
    ISRC GBUM71403860
    FLAGS DCP
    INDEX 01 00:00:00
FILE "07. God Bless the Child.wav" WAVE
  TRACK 07 AUDIO
    TITLE "God Bless the Child"
    PERFORMER "Annie Lennox"
    ISRC GBUM71403867
    FLAGS DCP
    INDEX 01 00:00:00
FILE "08. You Belong to Me.wav" WAVE
  TRACK 08 AUDIO
    TITLE "You Belong to Me"
    PERFORMER "Annie Lennox"
    ISRC GBUM71403857
    FLAGS DCP
    INDEX 01 00:00:00
FILE "09. September in the Rain.wav" WAVE
  TRACK 09 AUDIO
    TITLE "September in the Rain"
    PERFORMER "Annie Lennox"
    ISRC GBUM71403861
    FLAGS DCP
    INDEX 01 00:00:00
FILE "10. I Can Dream, Can't I.wav" WAVE
  TRACK 10 AUDIO
    TITLE "I Can Dream, Can't I?"
    PERFORMER "Annie Lennox"
    ISRC GBUM71403866
    FLAGS DCP
    INDEX 01 00:00:00
FILE "11. The Nearness of You.wav" WAVE
  TRACK 11 AUDIO
    TITLE "The Nearness of You"
    PERFORMER "Annie Lennox"
    ISRC GBUM71403858
    FLAGS DCP
    INDEX 01 00:00:00
FILE "12. Mood Indigo.wav" WAVE
  TRACK 12 AUDIO
    TITLE "Mood Indigo"
    PERFORMER "Annie Lennox"
    ISRC GBUM71403862
    FLAGS DCP
    INDEX 01 00:00:00

Код: Выделить всё
-----------------------
DON'T MODIFY THIS FILE

-----------------------

PERFORMER: auCDtect Task Manager, ver. 1.6.0 RC1 build 1.6.0.1
Copyright (c) 2008-2010 y-soft. All rights reserved
http://y-soft.org
ANALYZER: auCDtect: CD records authenticity detector, version 0.8.2
Copyright (c) 2004 Oleg Berngardt. All rights reserved.
Copyright (c) 2004 Alexander Djourik. All rights reserved.
FILE: 12. Mood Indigo.flac
  Size: 32236652 Hash: 2DA9C0EE5794038A65781D3C6EBBD682 Accuracy: -m0
  Conclusion: CDDA 100%
  Signature: BC964F6940382FF87505F979131992BA9A0B6895
FILE: 11. The Nearness of You.flac
  Size: 12532455 Hash: 3676F65C2E0A39F37EE475EFA269D642 Accuracy: -m0
  Conclusion: CDDA 100%
  Signature: D333A89930FC8E162FB52967AD189E43DC567062
FILE: 10. I Can Dream, Can't I.flac
  Size: 16729917 Hash: B221038A02528E5BB08C796EDAD5EEC1 Accuracy: -m0
  Conclusion: CDDA 100%
  Signature: 73B7FD3EB7D0E3EE15865E4090334CFB7FC47A7F
FILE: 09. September in the Rain.flac
  Size: 14116525 Hash: 0FD5331641B436F8D899409E7C44BF00 Accuracy: -m0
  Conclusion: CDDA 100%
  Signature: 21277AFD91A20A876796EE906481F55E636484AC
FILE: 08. You Belong to Me.flac
  Size: 18079868 Hash: 0CDE8FAB75641FC95BAC887CB5DE9269 Accuracy: -m0
  Conclusion: CDDA 100%
  Signature: 287A363BC433AFCA38019A7F80460A203F4CEC1D
FILE: 07. God Bless the Child.flac
  Size: 17007526 Hash: DF3ECD1256307C590CB823000E924F2F Accuracy: -m0
  Conclusion: CDDA 100%
  Signature: F54FEB2EB76CD78444EABD1E82E0610E64157BF4
FILE: 06. Strange Fruit.flac
  Size: 18533413 Hash: 6913E1A1A7276ED22D4DBC3D1A898F05 Accuracy: -m0
  Conclusion: CDDA 100%
  Signature: D7C598C0DE973D1AAB08552416A2A02292821BE5
FILE: 05. I Cover the Waterfront.flac
  Size: 16614821 Hash: 142A8BEBDD67E52C0446C1F819644DFB Accuracy: -m0
  Conclusion: CDDA 100%
  Signature: B801E5E1E2BD64F06A2DFA9EF9BF465EA5335429
FILE: 04. Summertime (From ''Porgy and Bess'').flac
  Size: 24274840 Hash: 631CEF47A096B23D1D94C343A5F9F64A Accuracy: -m0
  Conclusion: CDDA 86%
  Signature: D0EDBD2367174980A9754345D35249E8F7543121
FILE: 03. I Put a Spell on You.flac
  Size: 22196912 Hash: FCA0A1D50FD07E9B92B4AA747E43A7AC Accuracy: -m0
  Conclusion: CDDA 99%
  Signature: B940F8C1A1DABC722B65BBF30C2ABF18D4E55CD2
FILE: 02. Georgia on My Mind.flac
  Size: 21409879 Hash: F782AD14A1D2E5A4DDD8CD4B1D758ECA Accuracy: -m0
  Conclusion: CDDA 100%
  Signature: 4073FD190022734731C646D71F46825F1E219B10
FILE: 01. Memphis in June.flac
  Size: 14364090 Hash: 45AC7B9BCC8E4854677007D491E0741F Accuracy: -m0
  Conclusion: CDDA 100%
  Signature: 11A0DFF9A1F1D18800C142F7FA87C40A875E97C7



phpBB [media]

phpBB [media]

phpBB [media]
   
Торрент: Зарегистрирован [24 окт 2014, 14:39] World Pop Скачать торрент Магнет ссылка
Скачать торрент
[ Размер 18.48 КБ / Просмотров 315 ]
Статус:
Проверен
 
.torrent скачан: 2 раз
Размер: 217.59 МБ (228 159 094 байт)
   
 
 
Цитата
  • Похожие торренты
    Ответы
    Просмотры
    Последнее сообщение

Вернуться в World Pop

Кто сейчас на конференции

Сейчас эту тему просматривают: нет зарегистрированных пользователей и гости: 1