Один / 1 / Nenokkadine (Сукумар) [2014, Индия, Боевик, триллер, мелодрама, BDRip 1080p] MVO (SDI) + MVO (ICG) + Sub Eng + Original Hin+ Original Telugu

 Статистика раздачи 
Размер: 17.06 ГБ   |  Зарегистрирован: 27 сен 2018, 09:56   |   .torrent скачан: 0 раз
Сидеров: 6  [ 0 байт/сек ]     Личеров: 0  [ 0 байт/сек ]  
  
Аватара пользователя
 
Раздал: 229.86 ГБ
Скачал: 427.97 ГБ
Ратио: 0.617
Сообщения: 184957
Стаж: 7 лет 5 месяцев 3 дня

Один / 1 - Nenokkadine


Страна: Индия
Жанр: Боевик, триллер, мелодрама
Год выпуска: 2014
Продолжительность: 02:44:31
Перевод 1: Профессиональный (многоголосый закадровый) SDI
Перевод 2: Любительский (многоголосый закадровый) ICG - ICG
Субтитры: английские
Оригинальная аудиодорожка: телугу
Режиссер: Сукумар / Sukumar
В ролях: Махеш Бабу, Крити Санон, Нассер, Прадип Рават, Ану Хассан, Келли Дорджи, Саяджи Шинде, Кришна Мурали Посани, Шриниваса Редди, Рави Верма
Описание: Гаутам рос один, без родителей. Попал в детский дом. Потом стал рок-звездой. И казалось бы, у него есть все, что он хочет, но ничто не может компенсировать отсутствие в его жизни родителей. А еще давнишние воспоминания лезут наружу - три мужчины, которые виновны в том, что Гаутам сирота. И он решает найти бандитов, чтобы узнать о своем прошлом, о том, кем были его родители, и в противном случае отомстить за их смерть. Но он и не подозревает, что главный бой придется провести с самим собой.
Доп. информация: Перевод: Rummata.
Работа с видео и синхрон. звука: SnegkaVasil.
Релиз подготовлен: SnegkaVasil.
Спасибо jasinpapa за релиз с переводом!!!
Сэмпл: https://yadi.sk/i/z3ylwBzKqJ_syg

|

Качество видео: BDRip (1080р)
Формат видео: MKV
Видео: MPEG-4 AVC, 10000 Kбит/с, 1920x816, 24.000 fps, 16:9 / High@L4.1 Profile
Аудио: Русский AC3 / 2.0 / 48 kHz / 192 kbps
Аудио 2: русский AC3 / 5.1 / 48 kHz / 448 kbps
Аудио 3: хинди AC3 / 2.0 / 48 kHz / 256 kbps
Аудио 4: телугу (AC3 / 5.1 / 48 kHz / 448 kbps), (DTS-HD MA / 5.1 / 48 kHz / 4306 kbps / 24-bit (DTS Core: 5.1 / 48 kHz / 1509 kbps / 24-bit)
Код: Выделить всё
Общее
Уникальный идентификатор                 : 193754532734402086956718458137726850012 (0x91C3C40156285ED791F016558A6293DC)
Полное имя                               : D:\Загрузки2\1 - Nenokkadine 2014 BDRip 1080p x264 Rus.mkv
Формат                                   : Matroska
Версия формата                           : Version 2
Размер файла                             : 17,1 Гбайт
Продолжительность                        : 2 ч. 56 м.
Режим общего битрейта                    : Переменный
Общий поток                              : 13,9 Мбит/сек
Дата кодирования                         : UTC 2018-09-23 14:22:05
Программа кодирования                    : mkvmerge v4.1.1 ('Bouncin' Back') сборка от Jul  3 2010 22:54:08
Библиотека кодирования                   : libebml v1.0.0 + libmatroska v1.0.0
Видео
Идентификатор                            : 1
Формат                                   : AVC
Формат/Информация                        : Advanced Video Codec
Профиль формата                          : Main@L4
Настройки формата                        : CABAC / 1 Ref Frames
Параметр CABAC формата                   : Да
Параметр RefFrames формата               : 1 кадр
Идентификатор кодека                     : V_MPEG4/ISO/AVC
Продолжительность                        : 2 ч. 56 м.
Битрейт                                  : 10000 Кбит/сек
Ширина                                   : 1920 пикселей
Высота                                   : 816 пикселей
Соотношение сторон                       : 2,35:1
Режим частоты кадров                     : Постоянный
Частота кадров                           : 24,000 кадра/сек
Цветовое пространство                    : YUV
Субдискретизация насыщенности            : 4:2:0
Битовая глубина                          : 8 бит
Тип развёртки                            : Прогрессивная
Бит/(Пиксели*Кадры)                      : 0.266
Размер потока                            : 11,8 Гбайт (69%)
Библиотека кодирования                   : x264 core 129
Настройки программы                      : cabac=1 / ref=1 / deblock=1:0:0 / analyse=0x1:0x131 / me=dia / subme=2 / psy=1 / psy_rd=1.00:0.00 / mixed_ref=0 / me_range=16 / chroma_me=1 / trellis=0 / 8x8dct=0 / cqm=0 / deadzone=21,11 / fast_pskip=1 / chroma_qp_offset=0 / threads=2 / lookahead_threads=1 / sliced_threads=0 / nr=0 / decimate=1 / interlaced=0 / bluray_compat=0 / constrained_intra=0 / bframes=0 / weightp=2 / keyint=250 / keyint_min=25 / scenecut=40 / intra_refresh=0 / rc_lookahead=40 / rc=abr / mbtree=1 / bitrate=10000 / ratetol=1.0 / qcomp=0.60 / qpmin=10 / qpmax=51 / qpstep=4 / ip_ratio=1.41 / aq=1:1.00
Default                                  : Да
Forced                                   : Нет
Аудио #1
Идентификатор                            : 2
Формат                                   : AC-3
Формат/Информация                        : Audio Coding 3
Коммерческое название                    : Dolby Digital
Режим смешивания                         : Header stripping
Идентификатор кодека                     : A_AC3
Продолжительность                        : 2 ч. 56 м.
Вид битрейта                             : Постоянный
Битрейт                                  : 192 Кбит/сек
Каналы                                   : 2 канала
Channel layout                           : L R
Частота                                  : 48,0 КГц
Частота кадров                           : 31,250 кадров/сек (1536 SPF)
Битовая глубина                          : 16 бит
Метод сжатия                             : С потерями
Размер потока                            : 242 Мбайт (1%)
Заголовок                                : Профессиональный (многоголосый, закадровый) SDI Media
Язык                                     : Russian
ServiceKind/String                       : Complete Main
Default                                  : Нет
Forced                                   : Нет
Аудио #2
Идентификатор                            : 3
Формат                                   : AC-3
Формат/Информация                        : Audio Coding 3
Коммерческое название                    : Dolby Digital
Режим смешивания                         : Header stripping
Идентификатор кодека                     : A_AC3
Продолжительность                        : 2 ч. 56 м.
Вид битрейта                             : Постоянный
Битрейт                                  : 448 Кбит/сек
Каналы                                   : 6 каналов
Channel layout                           : L R C LFE Ls Rs
Частота                                  : 48,0 КГц
Частота кадров                           : 31,250 кадров/сек (1536 SPF)
Битовая глубина                          : 16 бит
Метод сжатия                             : С потерями
Размер потока                            : 565 Мбайт (3%)
Заголовок                                : Любительский многоголосый ICG
Язык                                     : Russian
ServiceKind/String                       : Complete Main
Default                                  : Нет
Forced                                   : Нет
Аудио #3
Идентификатор                            : 4
Формат                                   : AC-3
Формат/Информация                        : Audio Coding 3
Коммерческое название                    : Dolby Digital
Режим смешивания                         : Header stripping
Идентификатор кодека                     : A_AC3
Продолжительность                        : 2 ч. 56 м.
Вид битрейта                             : Постоянный
Битрейт                                  : 256 Кбит/сек
Каналы                                   : 2 канала
Channel layout                           : L R
Частота                                  : 48,0 КГц
Частота кадров                           : 31,250 кадров/сек (1536 SPF)
Битовая глубина                          : 16 бит
Метод сжатия                             : С потерями
Размер потока                            : 323 Мбайт (2%)
Язык                                     : Hindi
ServiceKind/String                       : Complete Main
Default                                  : Нет
Forced                                   : Нет
Аудио #4
Идентификатор                            : 5
Формат                                   : AC-3
Формат/Информация                        : Audio Coding 3
Коммерческое название                    : Dolby Digital
Режим смешивания                         : Header stripping
Идентификатор кодека                     : A_AC3
Продолжительность                        : 2 ч. 56 м.
Вид битрейта                             : Постоянный
Битрейт                                  : 448 Кбит/сек
Каналы                                   : 6 каналов
Channel layout                           : L R C LFE Ls Rs
Частота                                  : 48,0 КГц
Частота кадров                           : 31,250 кадров/сек (1536 SPF)
Битовая глубина                          : 16 бит
Метод сжатия                             : С потерями
Размер потока                            : 565 Мбайт (3%)
Язык                                     : Telugu
ServiceKind/String                       : Complete Main
Default                                  : Нет
Forced                                   : Нет
Аудио #5
Идентификатор                            : 6
Формат                                   : DTS XLL
Формат/Информация                        : Digital Theater Systems
Коммерческое название                    : DTS-HD Master Audio
Режим смешивания                         : Header stripping
Идентификатор кодека                     : A_DTS
Продолжительность                        : 2 ч. 56 м.
Вид битрейта                             : Переменный
Битрейт                                  : 2675 Кбит/сек
Каналы                                   : 6 каналов
Channel layout                           : C L R Ls Rs LFE
Частота                                  : 48,0 КГц
Частота кадров                           : 93,750 кадра/сек (512 SPF)
Битовая глубина                          : 24 бит
Метод сжатия                             : Без потерь
Размер потока                            : 3,29 Гбайт (19%)
Язык                                     : Telugu
Default                                  : Да
Forced                                   : Нет
Текст
Идентификатор                            : 7
Формат                                   : UTF-8
Идентификатор кодека                     : S_TEXT/UTF8
Идентификатор кодека/Информация          : UTF-8 Plain Text
Язык                                     : English
Default                                  : Да
Forced                                   : Нет
Меню
00:00:00.000                             : en:00:00:00.000
00:00:25.484                             : en:00:00:25.484
00:00:30.609                             : en:00:00:30.609
00:03:41.067                             : en:00:03:41.067
00:07:40.567                             : en:00:07:40.567
00:12:43.609                             : en:00:12:43.609
00:12:58.609                             : en:00:12:58.609
00:24:49.609                             : en:00:24:49.609
00:34:59.609                             : en:00:34:59.609
00:47:17.609                             : en:00:47:17.609
00:51:33.275                             : en:00:51:33.275
00:55:13.317                             : en:00:55:13.317
00:59:49.609                             : en:00:59:49.609
01:08:03.609                             : en:01:08:03.609
01:17:26.609                             : en:01:17:26.609
01:20:50.609                             : en:01:20:50.609
01:21:18.609                             : en:01:21:18.609
01:30:28.609                             : en:01:30:28.609
01:40:22.609                             : en:01:40:22.609
01:49:42.609                             : en:01:49:42.609
01:51:37.609                             : en:01:51:37.609
01:54:43.734                             : en:01:54:43.734
01:56:36.609                             : en:01:56:36.609
02:00:31.484                             : en:02:00:31.484
02:03:56.609                             : en:02:03:56.609
02:10:30.609                             : en:02:10:30.609
02:31:26.609                             : en:02:31:26.609
02:43:30.609                             : en:02:43:30.609
02:51:29.609                             : en:02:51:29.609


Не забывайте говорить Спасибо. Не уходите с раздачи!   
Торрент: Зарегистрирован [27 сен 2018, 09:56] Для скачивания .torrent
необходима регистрация
Или скачать с помощью
MediaGet
Статус:
Проверен
 
.torrent скачан: 0 раз
Хэш: 8ed4c443bfc50f783e6031b4ed5e3acf4bd2c56b
Размер: 17.06 ГБ (18 322 043 596 байт)
   Стать Автором раздачи
   
Цитата

Вернуться в Индийское кино

Кто сейчас на конференции

Сейчас эту тему просматривают: нет зарегистрированных пользователей и гости: 1