Mylene Farmer: Stade de France - Les Bonus [2010, Documentary, BDRip 1080p]

 Статистика раздачи 
Размер: 10.24 ГБ   |  Зарегистрирован: 27 май 2014, 23:17   |   .torrent скачан: 1 раз
Сидеров: 25  [ 0 байт/сек ]     Личеров: 1  [ 0 байт/сек ]  
  
Аватара пользователя
Администратор
Администратор
Автор темы
Раздал: 24.47 ТБ
Скачал: 388.83 ГБ
Ратио: 145.334
Сообщения: 5355
Стаж: 6 лет 7 месяцев 16 дней
Откуда: Lithuania

Mylene Farmer: Stade de France - Les Bonus



Оригинальное название: Mylene Farmer: Stade de France - Les Bonus
Дата выхода: 2010
Жанр: Documentary
Страна: de France
Продолжительность: 01:36:04

Описание: Дополнительные материалы к киноверсии концерта Милен Фармер на Stade de France


Качество: BDRip 1080p
Формат аудио: DTS
Формат видео: H.264
Видео: AVC / 1920*1080 (16:9) / ~13800 Kbps / 25 fps
Аудио: DTS / 1509 kbps / 48.0 KHz / 2 ch

Трэклист:
01. Ecorchee vive (11:30) - cоздание костюмов
02. Body art (04:33) - физическая подготовка
03. Le rayon vert (10:14) - освещение
04. Derriere les fenetres (14:20) - создание фоновых изображений
05. L'esprit du pas (24:15) - хореография и танцоры
06. Ondes de choc (19:26) - музыка и звук
07. Time laps (11:46) - за кулисами Stade de France


Код: Выделить всё
General
Unique ID                      : 176433531632463922749983916409889431678 (0x84BBDCB7994B7E119DCD04F73EF7207E)
Complete name                  : D:\uTorrent\Releases\Mylene Farmer (2010) Stade de France Les Bonus (BDRip 1080p)\01. Ecorchee vive.mkv
Format                         : Matroska
Format version                 : Version 2
File size                      : 1.26 GiB
Duration                       : 11mn 30s
Overall bit rate               : 15.6 Mbps
Encoded date                   : UTC 2014-05-27 17:00:10
Writing application            : mkvmerge v6.9.1 ('Blue Panther') 64bit built on Apr 18 2014 18:23:38
Writing library                : XviD4PSP 7.0 / 55.33.100
COMMENT                        : MPEGTS > MKV / H264 > X264 CRF 19.0 SHQ

Video
ID                             : 1
Format                         : AVC
Format/Info                    : Advanced Video Codec
Format profile                 : [email protected]
Format settings, CABAC         : Yes
Format settings, ReFrames      : 6 frames
Codec ID                       : V_MPEG4/ISO/AVC
Duration                       : 11mn 30s
Bit rate                       : 13.8 Mbps
Width                          : 1 920 pixels
Height                         : 1 080 pixels
Display aspect ratio           : 16:9
Frame rate mode                : Constant
Frame rate                     : 25.000 fps
Color space                    : YUV
Chroma subsampling             : 4:2:0
Bit depth                      : 8 bits
Scan type                      : Progressive
Bits/(Pixel*Frame)             : 0.267
Stream size                    : 1.11 GiB (88%)
Writing library                : x264 core 142 r2431M ac76440
Encoding settings              : cabac=1 / ref=6 / deblock=1:-4:-4 / analyse=0x3:0x113 / me=umh / subme=10 / psy=1 / psy_rd=1,05:0,10 / mixed_ref=1 / me_range=48 / chroma_me=1 / trellis=2 / 8x8dct=1 / cqm=0 / deadzone=21,11 / fast_pskip=0 / chroma_qp_offset=-3 / threads=6 / lookahead_threads=1 / sliced_threads=0 / nr=0 / decimate=1 / interlaced=0 / bluray_compat=0 / constrained_intra=0 / bframes=6 / b_pyramid=2 / b_adapt=2 / b_bias=0 / direct=3 / weightb=1 / open_gop=0 / weightp=2 / keyint=250 / keyint_min=25 / scenecut=40 / intra_refresh=0 / rc_lookahead=250 / rc=crf / mbtree=1 / crf=19,0 / qcomp=0,70 / qpmin=3 / qpmax=69 / qpstep=4 / ip_ratio=1,40 / aq=2:1,00
Default                        : Yes
Forced                         : No

Audio
ID                             : 2
Format                         : DTS
Format/Info                    : Digital Theater Systems
Mode                           : 16
Format settings, Endianness    : Big
Codec ID                       : A_DTS
Duration                       : 11mn 30s
Bit rate mode                  : Constant
Bit rate                       : 1 509 Kbps
Channel(s)                     : 2 channels
Channel positions              : Front: L R
Sampling rate                  : 48.0 KHz
Bit depth                      : 24 bits
Compression mode               : Lossy
Stream size                    : 124 MiB (10%)
Default                        : Yes
Forced                         : No


   
Торрент: Зарегистрирован [27 май 2014, 23:17] Скачать торрент Магнет ссылка
Скачать торрент
[ Размер 52.06 КБ / Просмотров 331 ]
Статус:
Проверен
 
.torrent скачан: 1 раз
Размер: 10.24 ГБ (10 990 549 865 байт)
   
 
 
Цитата

Вернуться в World Pop

Кто сейчас на конференции

Сейчас эту тему просматривают: нет зарегистрированных пользователей и гости: 1